Register  ·  Log in
Forgot password?

  • Мартышкины проделки / Apenstreken (Йохан Нийенхейс / Johan Nijenhuis) [2015, Нидерланды, Семейный, HDRip] MVO (Игмар)

    Reply to topic
    Author Message


    Post 27-Aug-2016 16:07



    Мартышкины проделки / Apenstreken
    Страна: Нидерланды
    Жанр: Семейный
    Год выпуска: 2015
    Продолжительность: 01:30:50
    Перевод: Профессиональный (многоголосый закадровый) Игмар
    Cубтитры: нет
    Режиссер: Йохан Нийенхейс / Johan Nijenhuis
    В ролях: Тиго Буссемакерс, Дик Карлир, Хюс Дам, Арьян Эдервен, Ларс Хенкенс, Эйвон Ясперс, Люк Питерс, Элвин Пулинкс, Харри ван Рейтховен, Мартина Сандифорт
    Описание: Сирота Вим мечтает учиться в школе, но его заставляют трудиться на фабрике. Когда мальчик сбегает, хозяева мануфактуры объявляют его в розыск. Теперь Виму предстоит наказать обидчиков, а помогут ему в этом верные друзья и маленькая обезьянка!
    Релиз Группы: Megapeer
    Качество видео: HDRip
    Формат видео: AVI
    Видео: 704x368 (1.91:1), 24 fps, XviD build 73 ~2296 kbps avg, 0.37 bit/pixel
    Аудио: Dolby AC3 48000Hz stereo 192kbps [Audio]


    Complete name : E:\Zona Downloads\Apenstreken.2015.HDRip.1.46Gb.P.MegaPeer.avi
    Format : AVI
    Format/Info : Audio Video Interleave
    File size : 1.46 GiB
    Duration : 1h 30mn
    Overall bit rate : 2 304 Kbps
    ID : 0
    Format : MPEG-4 Visual
    Format profile : Advanced Simple@L5
    Format settings, BVOP : 1
    Format settings, QPel : No
    Format settings, GMC : No warppoints
    Format settings, Matrix : Custom
    Codec ID : XVID
    Codec ID/Hint : XviD
    Duration : 1h 30mn
    Bit rate : 2 105 Kbps
    Width : 704 pixels
    Height : 368 pixels
    Display aspect ratio : 1.913
    Frame rate : 24.000 fps
    Color space : YUV
    Chroma subsampling : 4:2:0
    Bit depth : 8 bits
    Scan type : Progressive
    Compression mode : Lossy
    Bits/(Pixel*Frame) : 0.339
    Stream size : 1.34 GiB (91%)
    Writing library : XviD 73
    ID : 1
    Format : AC-3
    Format/Info : Audio Coding 3
    Mode extension : CM (complete main)
    Format settings, Endianness : Big
    Codec ID : 2000
    Duration : 1h 30mn
    Bit rate mode : Constant
    Bit rate : 192 Kbps
    Channel(s) : 2 channels
    Channel positions : Front: L R
    Sampling rate : 48.0 KHz
    Bit depth : 16 bits
    Compression mode : Lossy
    Stream size : 125 MiB (8%)
    Alignment : Aligned on interleaves
    Interleave, duration : 64 ms (1.54 video frames)
    Interleave, preload duration : 192 ms
    Title : P | Игмар |

    Скриншот c названием фильма


    Download .torrent

    Download free and at maximum speed!

    How to Download? · What is a torrent? · Ratings and Limitations

    The site does not extend and does not store electronic(digital) versions of products, and only gives access to a reference catalogue created by users on torrent-files which contain only lists of the hash-sums, the earnest entreaty, with complaints(abuse) to access directly to the user. Files for an exchange on tracker are given by users of a site, and the administration does not bear the responsibility for their maintenance. The request to not fill in the files protected by copyrights, and also files of the illegal maintenance!

    [Profile] [PM]


    Post 28-Aug-2016 20:27 (after 1 day 4 hours)


    Топік був перенесений з форуму Фильмы 2011-2015 у форум Детские зарубежные фильмы


    Как бы ты высоко не летал, не забывай, с кем ты ползал..
    Display posts from previous:    
    Reply to topic

    The time now is: Today 16:19

    All times are GMT + 3 Hours

    You cannot post new topics in this forum
    You cannot reply to topics in this forum
    You cannot edit your posts in this forum
    You cannot delete your posts in this forum
    You cannot vote in polls in this forum
    You cannot attach files in this forum
    You cannot download files in this forum