BitTorrentTracker PerecTracker.org
BitTorrentTracker PerecTracker.org
    
Регистрация  ·  Вход
 
 · 
Забыли пароль?

  • Мартышкины проделки / Apenstreken (Йохан Нийенхейс / Johan Nijenhuis) [2015, Нидерланды, Семейный, HDRip] MVO (Игмар)

    Ответить на тему
     
    Автор Сообщение

    Light

    Создавать темы 27-Авг-2016 15:07

           

    [Цитировать]

    Мартышкины проделки / Apenstreken
    Страна: Нидерланды
    Жанр: Семейный
    Год выпуска: 2015
    Продолжительность: 01:30:50
    Перевод: Профессиональный (многоголосый закадровый) Игмар
    Cубтитры: нет
    Режиссер: Йохан Нийенхейс / Johan Nijenhuis
    В ролях: Тиго Буссемакерс, Дик Карлир, Хюс Дам, Арьян Эдервен, Ларс Хенкенс, Эйвон Ясперс, Люк Питерс, Элвин Пулинкс, Харри ван Рейтховен, Мартина Сандифорт
    Описание: Сирота Вим мечтает учиться в школе, но его заставляют трудиться на фабрике. Когда мальчик сбегает, хозяева мануфактуры объявляют его в розыск. Теперь Виму предстоит наказать обидчиков, а помогут ему в этом верные друзья и маленькая обезьянка!
    Релиз Группы: Megapeer
    Сэмпл: http://multi-up.com/1115205
    Качество видео: HDRip
    Формат видео: AVI
    Видео: 704x368 (1.91:1), 24 fps, XviD build 73 ~2296 kbps avg, 0.37 bit/pixel
    Аудио: Dolby AC3 48000Hz stereo 192kbps [Audio]

    MediaInfo

    General
    Complete name : E:\Zona Downloads\Apenstreken.2015.HDRip.1.46Gb.P.MegaPeer.avi
    Format : AVI
    Format/Info : Audio Video Interleave
    File size : 1.46 GiB
    Duration : 1h 30mn
    Overall bit rate : 2 304 Kbps
    Video
    ID : 0
    Format : MPEG-4 Visual
    Format profile : Advanced Simple@L5
    Format settings, BVOP : 1
    Format settings, QPel : No
    Format settings, GMC : No warppoints
    Format settings, Matrix : Custom
    Codec ID : XVID
    Codec ID/Hint : XviD
    Duration : 1h 30mn
    Bit rate : 2 105 Kbps
    Width : 704 pixels
    Height : 368 pixels
    Display aspect ratio : 1.913
    Frame rate : 24.000 fps
    Color space : YUV
    Chroma subsampling : 4:2:0
    Bit depth : 8 bits
    Scan type : Progressive
    Compression mode : Lossy
    Bits/(Pixel*Frame) : 0.339
    Stream size : 1.34 GiB (91%)
    Writing library : XviD 73
    Audio
    ID : 1
    Format : AC-3
    Format/Info : Audio Coding 3
    Mode extension : CM (complete main)
    Format settings, Endianness : Big
    Codec ID : 2000
    Duration : 1h 30mn
    Bit rate mode : Constant
    Bit rate : 192 Kbps
    Channel(s) : 2 channels
    Channel positions : Front: L R
    Sampling rate : 48.0 KHz
    Bit depth : 16 bits
    Compression mode : Lossy
    Stream size : 125 MiB (8%)
    Alignment : Aligned on interleaves
    Interleave, duration : 64 ms (1.54 video frames)
    Interleave, preload duration : 192 ms
    Title : P | Игмар |

    Скриншот c названием фильма

    Скриншоты

    Скачать .torrent

    Скачать торрент-файл бесплатно и на максимальной скорости!

    Как скачивать? · Что такое торрент? · Рейтинг и ограничения

    !ВНИМАНИЕ!
    Сайт не распространяет и не хранит электронные версии произведений, а занимается лишь лишь предоставлением доступа к создаваемому пользователями каталогу ссылок на торрент-файлы, которые содержат только списки хеш-сумм, убедительная просьба с жалобами обращаться напрямую к пользователю. Файлы для обмена на трекере предоставлены пользователями сайта, и администрация не несёт ответственности за их содержание. Просьба не заливать файлы, защищенные авторскими правами, а также файлы нелегального содержания!


    _________________
    [Профиль] [ЛС]

    -746

    Создавать темы 28-Авг-2016 19:27 (спустя 1 день 4 часа)

           

    Топік був перенесений з форуму Фильмы 2011-2015 у форум Детские зарубежные фильмы

    rechyn

    _________________
    Как бы ты высоко не летал, не забывай, с кем ты ползал..
     
    Показать сообщения:    
    Ответить на тему

    Текущее время: Сегодня, в 01:13

    Часовой пояс: GMT + 2



    Вы не можете начинать темы
    Вы не можете отвечать на сообщения
    Вы не можете редактировать свои сообщения
    Вы не можете удалять свои сообщения
    Вы не можете голосовать в опросах
    Вы не можете прикреплять файлы к сообщениям
    Вы не можете скачивать файлы