BitTorrentTracker PerecTracker.org
BitTorrentTracker PerecTracker.org
    
Регистрация  ·  Вход
 
 · 
Забыли пароль?

  • Проклятие Спящей красавицы / The Curse of Sleeping Beauty (Тео Пирри / Pearry Reginald Teo) [2016, США, фэнтези, триллер, детектив, WEB-DLRip] Dub

    Ответить на тему
     
    Автор Сообщение

    rechyn

    Создавать темы 26-Авг-2016 14:00

           

    [Цитировать]

    Проклятие Спящей красавицы / The Curse of Sleeping Beauty
    Страна: США
    Жанр: фэнтези, триллер, детектив
    Год выпуска: 2016
    Продолжительность: 01:26:19
    Перевод: Профессиональный (дублированный)
    Cубтитры: нет
    Режиссер: Тео Пирри / Pearry Reginald Teo
    В ролях: Индиа Айсли, Итан Пек, Натали Холл, Брюс Дэвисон, Джеймс Лим, Скотт Алан Смит, Зак Уорд, Мим Дрю, Даллас Харт
    Описание: Томас Кайзер наследует родовое поместье, принадлежащее его семье многие поколения. Но он и не подозревает, что вместе с домом унаследовал и древнее проклятие, что лежит на нём со времён крестовых походов. Томас вынужден примерить на себя роль «хранителя» — того, кто не допустит, чтобы силы зла высвободились из поместья. Разгадать тайну дома ему помогут местный риелтор и священник, а также разбудить прекрасную Брайер Роуз, запертую в ужасном месте, которое Томас видел в своих снах.
    Сэмпл: http://multi-up.com/1115098
    Качество видео: WEB-DLRip
    Формат видео: AVI
    Видео: 720x400 (1.80:1), 25 fps, XviD build 50 ~1946 kbps avg, 0.27 bit/pixel
    Аудио: 48 kHz, AC3 Dolby Digital, 2/0 (L,R) ch, ~384 kbps

    MediaInfo

    General
    Complete name : E:\Zona Downloads\Проклятие Спящей Красавицы - The Curse of Sleeping Beauty (WEB-DLRip) Дублированный.avi
    Format : AVI
    Format/Info : Audio Video Interleave
    File size : 1.35 GiB
    Duration : 1h 22mn
    Overall bit rate : 2 340 Kbps
    Writing application : VirtualDubMod 1.5.10.3 | www.virtualdub-fr.org || (build 2550/release)
    Writing library : VirtualDubMod build 2550/release
    Video
    ID : 0
    Format : MPEG-4 Visual
    Format profile : Advanced Simple@L5
    Format settings, BVOP : 2
    Format settings, QPel : No
    Format settings, GMC : No warppoints
    Format settings, Matrix : Default (MPEG)
    Codec ID : XVID
    Codec ID/Hint : XviD
    Duration : 1h 22mn
    Bit rate : 1 947 Kbps
    Width : 720 pixels
    Height : 400 pixels
    Display aspect ratio : 16:9
    Frame rate : 25.000 fps
    Color space : YUV
    Chroma subsampling : 4:2:0
    Bit depth : 8 bits
    Scan type : Progressive
    Compression mode : Lossy
    Bits/(Pixel*Frame) : 0.270
    Stream size : 1.12 GiB (83%)
    Writing library : XviD 1.2.1 (UTC 2008-12-04)
    Audio
    ID : 1
    Format : AC-3
    Format/Info : Audio Coding 3
    Mode extension : CM (complete main)
    Format settings, Endianness : Big
    Codec ID : 2000
    Duration : 1h 22mn
    Bit rate mode : Constant
    Bit rate : 384 Kbps
    Channel(s) : 2 channels
    Channel positions : Front: L R
    Sampling rate : 48.0 KHz
    Bit depth : 16 bits
    Compression mode : Lossy
    Stream size : 227 MiB (16%)
    Alignment : Split accross interleaves
    Interleave, duration : 40 ms (1.00 video frame)
    Interleave, preload duration : 500 ms

    Скриншот c названием фильма

    Скриншоты

    Скачать .torrent

    Скачать торрент-файл бесплатно и на максимальной скорости!

    Как скачивать? · Что такое торрент? · Рейтинг и ограничения

    !ВНИМАНИЕ!
    Сайт не распространяет и не хранит электронные версии произведений, а занимается лишь лишь предоставлением доступа к создаваемому пользователями каталогу ссылок на торрент-файлы, которые содержат только списки хеш-сумм, убедительная просьба с жалобами обращаться напрямую к пользователю. Файлы для обмена на трекере предоставлены пользователями сайта, и администрация не несёт ответственности за их содержание. Просьба не заливать файлы, защищенные авторскими правами, а также файлы нелегального содержания!


    _________________
    [Профиль] [ЛС]
    Показать сообщения:    
    Ответить на тему

    Текущее время: Сегодня, в 11:09

    Часовой пояс: GMT + 2



    Вы не можете начинать темы
    Вы не можете отвечать на сообщения
    Вы не можете редактировать свои сообщения
    Вы не можете удалять свои сообщения
    Вы не можете голосовать в опросах
    Вы не можете прикреплять файлы к сообщениям
    Вы не можете скачивать файлы