BitTorrentTracker PerecTracker.org
BitTorrentTracker PerecTracker.org
    
Регистрация  ·  Вход
 
 · 
Забыли пароль?

  • Бен-Гур / Ben-Hur (2016) CAMRip | L

    Ответить на тему
     
    Автор Сообщение

    BOSS

    Создавать темы 25-Авг-2016 19:28

           

    [Цитировать]

    Бен-Гур / Ben-Hur
    Страна: США Производство: Paramount Pictures, Metro-Goldwyn-Mayer (MGM), LightWorkers Media
    Год выпуска: 2016
    Жанр: драма, приключения, история
    Продолжительность: 01:57:09
    Режиссер: Тимур Бекмамбетов
    Автор сценария: Кит Р. Кларк, Джон Ридли, Лью Уоллес
    В ролях: Джек Хьюстон, Тоби Кеббелл, Родриго Санторо, Назанин Бониади, Айелет Зурер, Йохан Филип Асбек, София Блэк-Д’Элиа, Морган Фриман
    Описание: История Бен-Гура, потомка знатного иудейского рода, который был предан своим лучшим другом-римлянином. Проведя много лет в рабстве на римских галерах, Бен-Гур в итоге получает возможность вернуться на родину и отомстить обидчику...

    Перевод: Любительский (многоголосый, закадровый)
    Субтитры: нет-Качество: CAMRip
    Формат: АVI
    Видео кодек: XviD
    Аудио кодек: АС3
    Видео: 720x384 (1.85:1), 29.970 fps, XviD ~1 509 kbps avg
    Аудио: 48.0 kHz, AC3 Dolby Digital, 2/0 (L,R) ch, ~192 kbps
    Дата премьеры (мир): 17 августа 2016
    Дата премьеры (РФ): 8 сентября 2016, «Централ Партнершип»
    ПРИМЕЧАНИЕ: ПРИСУТСТВУЕТ РЕКЛАМА!

    Media Info

    General
    Сomplete name : BeNGuRR.2O16.MVO.CAMRip.14OOMB.avi
    Format : AVI
    Format/Info : Audio Video Interleave
    File size : 1.46 GiB
    Duration : 1h 57mn
    Overall bit rate : 1 780 Kbps
    Writing application : VirtualDubMod 1.5.10.2 (build 2540/release)
    Writing library : VirtualDubMod build 2540/release
    Video #0
    ID : 0
    Format : MPEG-4 Visual
    Format profile : Advanced Simple@L5
    Format settings, BVOP : 2
    Format settings, QPel : No
    Format settings, GMC : No warppoints
    Format settings, Matrix : Custom
    Codec ID : XVID
    Codec ID/Hint : XviD
    Duration : 1h 57mn
    Bit rate : 1 509 Kbps
    Width : 720 pixels
    Height : 384 pixels
    Display aspect ratio : 1.85:1
    Frame rate : 29.970 fps
    Color space : YUV
    Chroma subsampling : 4:2:0
    Bit depth : 8 bits
    Scan type : Progressive
    Compression mode : Lossy
    Bits/(Pixel*Frame) : 0.182
    Stream size : 1.23 GiB (85%)
    Writing library : XviD 1.2.1 (UTC 2008-12-04)
    Audio #1
    ID : 1
    Format : AC-3
    Format/Info : Audio Coding 3
    Mode extension : CM (complete main)
    Format settings, Endianness : Big
    Codec ID : 2000
    Duration : 1h 57mn
    Bit rate mode : Constant
    Bit rate : 192 Kbps
    Channel(s) : 2 channels
    Channel positions : Front: L R
    Sampling rate : 48.0 KHz
    Compression mode : Lossy
    Stream size : 161 MiB (11%)
    Alignment : Split accross interleaves

    Скриншоты

    Скачать .torrent

    Скачать торрент-файл бесплатно и на максимальной скорости!

    Как скачивать? · Что такое торрент? · Рейтинг и ограничения

    !ВНИМАНИЕ!
    Сайт не распространяет и не хранит электронные версии произведений, а занимается лишь лишь предоставлением доступа к создаваемому пользователями каталогу ссылок на торрент-файлы, которые содержат только списки хеш-сумм, убедительная просьба с жалобами обращаться напрямую к пользователю. Файлы для обмена на трекере предоставлены пользователями сайта, и администрация не несёт ответственности за их содержание. Просьба не заливать файлы, защищенные авторскими правами, а также файлы нелегального содержания!

    [Профиль] [ЛС]
    Показать сообщения:    
    Ответить на тему

    Текущее время: Сегодня, в 16:30

    Часовой пояс: GMT + 2



    Вы не можете начинать темы
    Вы не можете отвечать на сообщения
    Вы не можете редактировать свои сообщения
    Вы не можете удалять свои сообщения
    Вы не можете голосовать в опросах
    Вы не можете прикреплять файлы к сообщениям
    Вы не можете скачивать файлы