BitTorrentTracker PerecTracker.org
BitTorrentTracker PerecTracker.org
    
Регистрация  ·  Вход
 
 · 
Забыли пароль?

  • Простая история (Виктор Татарский) [2016, Боевик, военный, драма, мелодрама, WEB-DLRip]

    Ответить на тему
     
    Автор Сообщение

    Flirldrerve

    Создавать темы 25-Авг-2016 13:20

           

    [Цитировать]

    Простая история
    Слоган: "У них был выбор..."
    Жанр: Боевик, военный, драма, мелодрама
    Год выпуска: 2016
    Продолжительность: 01:30:02
    Режиссер: Виктор Татарский
    В ролях: Сергей Марин, Анастасия Тюнина, Екатерина Проскурина, Михаил Елисеев, Евгений Сидихин, Юсуп Бахшиев, Евгений Добряков, Алексей Красноцветов, Дмитрий Быковский-Ромашов
    Описание: Вячеслав Воробьев — боец особого подразделения ОМОН. По стечению обстоятельств после одного из спецзаданий сослуживцы и командиры начинают подозревать Вячеслава в гибели товарища. Желая реабилитироваться перед ними и вновь заслужить доверие, главный герой вызывается во внеочередную опасную командировку в город Назрань. Там он знакомится с девушкой Наташей, в которую влюбляется с первого взгляда. Наташа принимает ухаживания молодого человека, и у них завязываются отношения. Но Слава скрывает место своей работы и цели командировки. Правду Наташа узнает только в тот момент, когда Слава отправляется на самое опасное боевое задание в своей жизни.
    Сэмпл: http://multi-up.com/1115001
    Качество видео: WEB-DLRip
    Исходник: [Prostaya.istoriya.2O16.WEBDL.1080p]
    Формат видео: AVI
    Видео: 720x304 (2.37:1), 25 fps, XviD build 65 ~2116 kbps avg, 0.39 bit/pixel
    Audio: 48 kHz, AC3 Dolby Digital, 2/0 (L,R) ch, ~192 kbps
    Rip by Ториял для

    MediaInfo

    Format : AVI
    Format/Info : Audio Video Interleave
    File size : 1.46 GiB
    Duration : 1h 30mn
    Overall bit rate : 2 319 Kbps
    Writing application : VirtualDubMod 1.5.10.3 | www.virtualdub-fr.org || (build 2550/release)
    Writing library : VirtualDubMod build 2550/release
    Video
    ID : 0
    Format : MPEG-4 Visual
    Format profile : Advanced Simple@L5
    Format settings, BVOP : 1
    Format settings, QPel : No
    Format settings, GMC : No warppoints
    Format settings, Matrix : Custom
    Codec ID : XVID
    Codec ID/Hint : XviD
    Duration : 1h 30mn
    Bit rate : 2 117 Kbps
    Width : 720 pixels
    Height : 304 pixels
    Display aspect ratio : 2.35:1
    Frame rate : 25.000 fps
    Color space : YUV
    Chroma subsampling : 4:2:0
    Bit depth : 8 bits
    Scan type : Progressive
    Compression mode : Lossy
    Bits/(Pixel*Frame) : 0.387
    Stream size : 1.33 GiB (91%)
    Writing library : XviD 65
    Audio
    ID : 1
    Format : AC-3
    Format/Info : Audio Coding 3
    Mode extension : CM (complete main)
    Format settings, Endianness : Big
    Codec ID : 2000
    Duration : 1h 30mn
    Bit rate mode : Constant
    Bit rate : 192 Kbps
    Channel(s) : 2 channels
    Channel positions : Front: L R
    Sampling rate : 48.0 KHz
    Frame rate : 31.250 fps (1536 spf)
    Compression mode : Lossy
    Stream size : 124 MiB (8%)
    Alignment : Split accross interleaves
    Interleave, duration : 40 ms (1.00 video frame)
    Interleave, preload duratio : 500 ms

    Скриншоты

    Скачать .torrent

    Скачать торрент-файл бесплатно и на максимальной скорости!

    Как скачивать? · Что такое торрент? · Рейтинг и ограничения

    !ВНИМАНИЕ!
    Сайт не распространяет и не хранит электронные версии произведений, а занимается лишь лишь предоставлением доступа к создаваемому пользователями каталогу ссылок на торрент-файлы, которые содержат только списки хеш-сумм, убедительная просьба с жалобами обращаться напрямую к пользователю. Файлы для обмена на трекере предоставлены пользователями сайта, и администрация не несёт ответственности за их содержание. Просьба не заливать файлы, защищенные авторскими правами, а также файлы нелегального содержания!


    _________________
    [Профиль] [ЛС]
    Показать сообщения:    
    Ответить на тему

    Текущее время: Сегодня, в 05:58

    Часовой пояс: GMT + 2



    Вы не можете начинать темы
    Вы не можете отвечать на сообщения
    Вы не можете редактировать свои сообщения
    Вы не можете удалять свои сообщения
    Вы не можете голосовать в опросах
    Вы не можете прикреплять файлы к сообщениям
    Вы не можете скачивать файлы