BitTorrentTracker PerecTracker.org
BitTorrentTracker PerecTracker.org
    
Регистрация  ·  Вход
 
 · 
Забыли пароль?

  • Восстание планеты обезьян / Rise of the Planet of the Apes (Руперт Уайатт / Rupert Wyatt) [2011, США, фантастика, боевик, триллер, драма, HDTV1080i] [Open Matte] Dub

    Ответить на тему
     
    Автор Сообщение

    Light

    Создавать темы 25-Авг-2016 00:53

           

    [Цитировать]

    Восстание планеты обезьян / Rise of the Planet of the Apes / Open Matte
    Страна: США
    Жанр: фантастика, боевик, триллер, драма
    Год выпуска: 2011
    Продолжительность: 01:34:54
    Перевод: Профессиональный (дублированный)
    Cубтитры: нет
    Оригинальная аудиодорожка: нет
    Режиссер: Руперт Уайатт / Rupert Wyatt
    В ролях: Джеймс Франко, Фрида Пинто, Джон Литгоу, Брайан Кокс, Том Фелтон, Дэвид Ойелоуо, Тайлер Лэбин, Джэми Харрис, Дэвид Хьюлетт, Ти Олссон
    Описание: Действие фильма происходит в современном Сан-Франциско и строится вокруг учёного, генетические эксперименты которого привели к возникновению высокоразвитого интеллекта у обезьян. Приматы, осознав своё подчинённое положение, поднимают восстание и лишают человека звания царя природы.
    Доп. информация: По наполнению кадра HDTV отличается от BD http://screenshotcomparison.com/comparison/182139
    Сэмпл: http://multi-up.com/1114825
    Качество видео: HDTV1080i
    Формат видео: TS
    Видео: AVC, 1920x1080 (16:9), 25.000 fps, 13.8 Mbps (0.267 bit/pixel)
    Аудио: MP2, 48.0 KHz, 2 ch, 192 Kbps, CBR (Russian)

    MediaInfo

    Общее
    Идентификатор : 3 (0x3)
    Полное имя : M:\Восстание планеты обезьян.ts
    Формат : MPEG-TS
    Размер файла : 9,00 Гбайт
    Продолжительность : 1 ч. 27 м.
    Режим общего битрейта : Переменный
    Общий поток : 14,8 Мбит/сек
    Видео
    Идентификатор : 2141 (0x85D)
    Идентификатор меню : 21004 (0x520C)
    Формат : AVC
    Формат/Информация : Advanced Video Codec
    Профиль формата : Main@L4
    Параметр CABAC формата : Да
    Параметр ReFrames формата : 3 кадра
    Идентификатор кодека : 27
    Продолжительность : 1 ч. 34 м.
    Битрейт : 13,8 Мбит/сек
    Ширина : 1920 пикселей
    Высота : 1080 пикселей
    Соотношение сторон : 16:9
    Частота кадров : 25,000 кадров/сек
    Стандарт вещания : Component
    Цветовое пространство : YUV
    Субдискретизация насыщенности : 4:2:0
    Битовая глубина : 8 бит
    Тип развёртки : Чересстрочная
    Метод сохранения типа развёртки : Раздельные поля
    Порядок развёртки : Верхнее поле первое
    Бит/(Пиксели*Кадры) : 0.267
    Размер потока : 9,18 Гбайт
    Цветовой диапазон : Limited
    Основные цвета : BT.709
    Характеристики трансфера : BT.709
    Коэффициенты матрицы : BT.709
    Аудио
    Идентификатор : 2142 (0x85E)
    Идентификатор меню : 21004 (0x520C)
    Формат : MPEG Audio
    Версия формата : Version 1
    Профиль формата : Layer 2
    Идентификатор кодека : 4
    Продолжительность : 1 ч. 34 м.
    Вид битрейта : Постоянный
    Битрейт : 192 Кбит/сек
    Каналы : 2 канала
    Частота : 48,0 КГц
    Метод сжатия : С потерями
    Задержка видео : -1 мс.
    Размер потока : 130 Мбайт (1%)
    Язык : Russian

    Скриншоты

    [
    Скачать .torrent

    Скачать торрент-файл бесплатно и на максимальной скорости!

    Как скачивать? · Что такое торрент? · Рейтинг и ограничения

    !ВНИМАНИЕ!
    Сайт не распространяет и не хранит электронные версии произведений, а занимается лишь лишь предоставлением доступа к создаваемому пользователями каталогу ссылок на торрент-файлы, которые содержат только списки хеш-сумм, убедительная просьба с жалобами обращаться напрямую к пользователю. Файлы для обмена на трекере предоставлены пользователями сайта, и администрация не несёт ответственности за их содержание. Просьба не заливать файлы, защищенные авторскими правами, а также файлы нелегального содержания!


    _________________
    [Профиль] [ЛС]
    Показать сообщения:    
    Ответить на тему

    Текущее время: Сегодня, в 19:37

    Часовой пояс: GMT + 2



    Вы не можете начинать темы
    Вы не можете отвечать на сообщения
    Вы не можете редактировать свои сообщения
    Вы не можете удалять свои сообщения
    Вы не можете голосовать в опросах
    Вы не можете прикреплять файлы к сообщениям
    Вы не можете скачивать файлы