Register  ·  Log in
Forgot password?

  • Хочется жить / Желание жить / Chce sie zyc / Life Feels Good (Мацей Пепжица / Maciej Pieprzyca) [2013, Польша, Драма, BDRip] VO (Lenape)

    Reply to topic
    Author Message


    Post 24-Aug-2016 21:41



    Хочется жить / Желание жить / Chce sie zyc / Life Feels Good-Страна: Польша
    Жанр: Драма
    Год выпуска: 2013
    Продолжительность: 01:47:09-Перевод: Одноголосый закадровый [Lenape]
    Cубтитры: нет-Режиссер: Мацей Пепжица / Maciej Pieprzyca-В ролях: Давид Огродник, Камиль Ткач, Дорота Колак, Аркадиуш Якубик, Анна Нехребецка, Катажина Завадска, Хелена Суецка, Миколай Рознерски-Описание: Главный герой, Матеуш, болен ДЦП. Не говорит, не ходит, нет с ним контакта. Доктора поставили диагноз: до конца жизни Матеуш будет растением. Страшный диагноз, как оказалось, не до конца правильный. Никогда не сдаваться - так учил Матеуша отец.-Доп. информация: Субтитры, по которым делалась озвучка взял из этого релиза - спасибо bohdk-Sample | IMDB | КиноПоиск-Тип релиза: BDRip [исх. Life Feels Good 2013 1080p Blu-ray Remux AVC DTS-HD MA 5 1 - KRaLiMaRKo]
    Формат видео: AVI-Видео: 640x272 (2.35:1), 25 fps, XviD build 50, 836 kbps avg, 0.19 bit/pixel
    Аудио: 48 kHz, MPEG Layer 3, 2 ch, 128.00 kbps avg [Russian_VO]-Релиз группы:


    Complete name : D:\Мои релизы\Chce sie zyc_BDRip_[745]_VO_Lenape_RG_All_Films.avi
    Format : AVI
    Format/Info : Audio Video Interleave
    File size : 747 MiB
    Duration : 1h 47mn
    Overall bit rate : 975 Kbps
    Writing application : VirtualDubMod | || (build 2550/release)
    Writing library : VirtualDubMod build 2550/release
    ID : 0
    Format : MPEG-4 Visual
    Format profile : Advanced Simple@L5
    Format settings, BVOP : Yes
    Format settings, QPel : No
    Format settings, GMC : No warppoints
    Format settings, Matrix : Custom
    Codec ID : XVID
    Codec ID/Hint : XviD
    Duration : 1h 47mn
    Bit rate : 837 Kbps
    Width : 640 pixels
    Height : 272 pixels
    Display aspect ratio : 2.35:1
    Frame rate : 25.000 fps
    Color space : YUV
    Chroma subsampling : 4:2:0
    Bit depth : 8 bits
    Scan type : Progressive
    Compression mode : Lossy
    Bits/(Pixel*Frame) : 0.192
    Stream size : 641 MiB (86%)
    Writing library : XviD 1.2.1 (UTC 2008-12-04)
    ID : 1
    Format : MPEG Audio
    Format version : Version 1
    Format profile : Layer 3
    Codec ID : 55
    Codec ID/Hint : MP3
    Duration : 1h 47mn
    Bit rate mode : Constant
    Bit rate : 128 Kbps
    Channel(s) : 2 channels
    Sampling rate : 48.0 KHz
    Compression mode : Lossy
    Stream size : 98.1 MiB (13%)
    Alignment : Aligned on interleaves
    Interleave, duration : 40 ms (1.00 video frame)
    Interleave, preload duration : 504 ms
    Writing library : LAME3.98r
    Encoding settings : -m s -V 4 -q 2 -lowpass 17 -b 128


    -Торрент-файл перезалит 23.08.2016 по причине замены DVDRip BDRip
    Download .torrent

    Download free and at maximum speed!

    How to Download? · What is a torrent? · Ratings and Limitations

    The site does not extend and does not store electronic(digital) versions of products, and only gives access to a reference catalogue created by users on torrent-files which contain only lists of the hash-sums, the earnest entreaty, with complaints(abuse) to access directly to the user. Files for an exchange on tracker are given by users of a site, and the administration does not bear the responsibility for their maintenance. The request to not fill in the files protected by copyrights, and also files of the illegal maintenance!

    [Profile] [PM]
    Display posts from previous:    
    Reply to topic

    The time now is: Today 21:03

    All times are GMT + 3 Hours

    You cannot post new topics in this forum
    You cannot reply to topics in this forum
    You cannot edit your posts in this forum
    You cannot delete your posts in this forum
    You cannot vote in polls in this forum
    You cannot attach files in this forum
    You cannot download files in this forum