BitTorrentTracker PerecTracker.org
BitTorrentTracker PerecTracker.org
    
Регистрация  ·  Вход
 
 · 
Забыли пароль?

  • Мужчина, которого слишком сильно любили / L\'homme qu\'on aimait trop (Андре Тешине / André Téchiné) [2014, Франция, драма, BDRip 720p] MVO + Sub Eng + Original Fre

    Ответить на тему
     
    Автор Сообщение

    Light

    Создавать темы 24-Авг-2016 00:11

           

    [Цитировать]

    Мужчина, которого слишком сильно любили / L'homme qu'on aimait trop
    Страна: Франция
    Жанр: драма
    Год выпуска: 2014
    Продолжительность: 01:56:44
    Перевод: Профессиональный (многоголосый закадровый)
    Cубтитры: английские
    Оригинальная аудиодорожка: французский-Режиссер: Андре Тешине / André Téchiné-В ролях: Катрин Денёв, Гийом Кане, Адель Энель, Жюдит Шемла, Мауро Конте, Жан Корсо, Хьюго Саблич, Жан-Пьер Гетти, Паскаль Мерсье, Тамара Де Линер-Описание: После неудачного брака Аньес Ле Ру возвращается из Африки к матери Рене, владелице Казино Ле Пале. Молодая девушка влюбляется в поверенного в делах Рене, Мориса Агнеле, красавца-юриста старше ее на 10 лет. Будучи одним из акционеров Казино, Аньес хочет продать свою наследную долю, чтобы стать независимой, но ее мать упрямо отказывается. В самый разгар конфликта между мафией и владельцами казино Морис переходит на сторону противника и предлагает Аньес три миллиона франков за то, чтобы она проголосовала против своей матери...-Релиз:
    | Рип от VietHD-Качество видео: BDRip
    Формат видео: MKV
    Видео: 1280x534 at 23.976 fps, x264@L4.1, crf, ~4 771 kbps avg
    Аудио 1: Russian: 48 kHz, AC3, 3/2 (L,C,R,l,r) + LFE ch, ~640.00 kbps avg |Многоголосый закадровый|
    Аудио 2: French: 48 kHz, AC3, 3/2 (L,C,R,l,r) + LFE ch, ~640.00 kbps avg--Цитата:
    Цитата:

    • Сохранены оригинальные главы как на Blu-ray.

    MediaInfo

    Format                      : Matroska
    Format version              : Version 4 / Version 2
    File size                   : 5.03 GiB
    Duration                    : 1 h 56 min
    Overall bit rate            : 6 173 kb/s
    Movie name                  : L'homme qu'on aimait trop (2014) - Release for HDCLUB
    Encoded date                : UTC 2016-08-21 05:07:08
    Writing application         : mkvmerge v8.1.0 ('Psychedelic Postcard') 32bit
    Writing library             : libebml v1.3.1 + libmatroska v1.4.2
    Video
    ID                          : 1
    Format                      : AVC
    Format/Info                 : Advanced Video Codec
    Format profile              : High@L4.1
    Format settings, CABAC      : Yes
    Format settings, ReFrames   : 12 frames
    Codec ID                    : V_MPEG4/ISO/AVC
    Duration                    : 1 h 56 min
    Bit rate                    : 4 891 kb/s
    Width                       : 1 280 pixels
    Height                      : 534 pixels
    Display aspect ratio        : 2.40:1
    Frame rate mode             : Constant
    Frame rate                  : 23.976 (24000/1001) FPS
    Color space                 : YUV
    Chroma subsampling          : 4:2:0
    Bit depth                   : 8 bits
    Scan type                   : Progressive
    Bits/(Pixel*Frame)          : 0.298
    Stream size                 : 3.99 GiB (79%)
    Writing library             : x264 core 146 r2538kMod 121396c
    Encoding settings           : cabac=1 / ref=12 / deblock=1:-3:-3 / analyse=0x3:0x133 / me=umh / subme=10 / psy=1 / fade_compensate=0.00 / psy_rd=1.10:0.00 / mixed_ref=1 / me_range=24 / chroma_me=1 / trellis=2 / 8x8dct=1 / cqm=0 / deadzone=21,11 / fast_pskip=0 / chroma_qp_offset=-2 / threads=6 / lookahead_threads=1 / sliced_threads=0 / nr=0 / decimate=0 / interlaced=0 / bluray_compat=0 / constrained_intra=0 / fgo=0 / bframes=7 / b_pyramid=2 / b_adapt=2 / b_bias=0 / direct=3 / weightb=1 / open_gop=0 / weightp=2 / keyint=250 / keyint_min=23 / scenecut=40 / intra_refresh=0 / rc_lookahead=60 / rc=crf / mbtree=0 / crf=16.8000 / qcomp=0.65 / qpmin=0 / qpmax=69 / qpstep=4 / vbv_maxrate=62500 / vbv_bufsize=78125 / crf_max=0.0 / nal_hrd=none / filler=0 / ip_ratio=1.30 / pb_ratio=1.20 / aq=3:0.70
    Language                    : English
    Default                     : Yes
    Forced                      : No
    Color range                 : Limited
    Matrix coefficients         : BT.709
    Audio #1
    ID                          : 2
    Format                      : AC-3
    Format/Info                 : Audio Coding 3
    Mode extension              : CM (complete main)
    Format settings, Endianness : Big
    Codec ID                    : A_AC3
    Duration                    : 1 h 56 min
    Bit rate mode               : Constant
    Bit rate                    : 640 kb/s
    Channel(s)                  : 6 channels
    Channel positions           : Front: L C R, Side: L R, LFE
    Sampling rate               : 48.0 kHz
    Frame rate                  : 31.250 FPS (1536 spf)
    Compression mode            : Lossy
    Stream size                 : 534 MiB (10%)
    Title                       : Многоголосый закадровый
    Language                    : Russian
    Default                     : Yes
    Forced                      : No
    Audio #2
    ID                          : 3
    Format                      : AC-3
    Format/Info                 : Audio Coding 3
    Mode extension              : CM (complete main)
    Format settings, Endianness : Big
    Codec ID                    : A_AC3
    Duration                    : 1 h 56 min
    Bit rate mode               : Constant
    Bit rate                    : 640 kb/s
    Channel(s)                  : 6 channels
    Channel positions           : Front: L C R, Side: L R, LFE
    Sampling rate               : 48.0 kHz
    Frame rate                  : 31.250 FPS (1536 spf)
    Compression mode            : Lossy
    Stream size                 : 534 MiB (10%)
    Language                    : French
    Default                     : No
    Forced                      : No
    Text
    ID                          : 4
    Format                      : UTF-8
    Codec ID                    : S_TEXT/UTF8
    Codec ID/Info               : UTF-8 Plain Text
    Duration                    : 1 h 56 min
    Bit rate                    : 49 b/s
    Count of elements           : 1355
    Stream size                 : 42.0 KiB (0%)
    Language                    : English
    Default                     : No
    Forced                      : No
    Menu
    00:00:00.000                : en:00:00:00.000
    00:06:24.968                : en:00:06:24.968
    00:13:14.502                : en:00:13:14.502
    00:22:17.419                : en:00:22:17.419
    00:28:40.510                : en:00:28:40.510
    00:37:10.270                : en:00:37:10.270
    00:44:46.100                : en:00:44:46.100
    00:51:54.611                : en:00:51:54.611
    00:59:23.310                : en:00:59:23.310
    01:07:50.608                : en:01:07:50.608
    01:14:48.943                : en:01:14:48.943
    01:21:17.956                : en:01:21:17.956
    01:30:14.659                : en:01:30:14.659
    01:36:59.856                : en:01:36:59.856
    01:45:00.753                : en:01:45:00.753
    01:52:31.745                : en:01:52:31.745

    Скриншоты

    Скачать .torrent

    Скачать торрент-файл бесплатно и на максимальной скорости!

    Как скачивать? · Что такое торрент? · Рейтинг и ограничения

    !ВНИМАНИЕ!
    Сайт не распространяет и не хранит электронные версии произведений, а занимается лишь лишь предоставлением доступа к создаваемому пользователями каталогу ссылок на торрент-файлы, которые содержат только списки хеш-сумм, убедительная просьба с жалобами обращаться напрямую к пользователю. Файлы для обмена на трекере предоставлены пользователями сайта, и администрация не несёт ответственности за их содержание. Просьба не заливать файлы, защищенные авторскими правами, а также файлы нелегального содержания!


    _________________
    [Профиль] [ЛС]
    Показать сообщения:    
    Ответить на тему

    Текущее время: Сегодня, в 12:59

    Часовой пояс: GMT + 2



    Вы не можете начинать темы
    Вы не можете отвечать на сообщения
    Вы не можете редактировать свои сообщения
    Вы не можете удалять свои сообщения
    Вы не можете голосовать в опросах
    Вы не можете прикреплять файлы к сообщениям
    Вы не можете скачивать файлы