BitTorrentTracker PerecTracker.org
BitTorrentTracker PerecTracker.org
    
Регистрация  ·  Вход
 
 · 
Забыли пароль?

  • Джульетта / Julieta (Педро Альмодовар / Pedro Almodóvar ) [2016, Испания, Драма, мелодрама, BDRip, HD (720p)] DUB + Original

    Ответить на тему
     
    Автор Сообщение

    rechyn

    Создавать темы 24-Авг-2016 00:11

           

    [Цитировать]

    Джульетта / Julieta
    -
    7.115 / 10 7.30 / 10
    -Год выпуска: 2016
    Страна: Испания
    Жанр: Драма, мелодрама
    Продолжительность: 01:38:37
    Перевод: Дублированный (iTunes)
    Оригинальная аудиодорожка: Есть
    Cубтитры: Нет
    Режиссёр: Педро Альмодовар
    Сценарий: Педро Альмодовар, Элис Манро
    Продюсер: Агустин Альмодовар, Эстер Гарсия, Диего Пахуэло
    Оператор: Жан-Клод Ларьё
    Композитор: Альберто Иглесиас
    Художник: Антксон Гомес, Карлос Боделон, Федерико Гамберо
    Монтаж: Хосе Сальседо
    В ролях: Адриана Угарте, Росси де Пальма, Эмма Суарес, Мишель Хеннер, Инма Куэста, Даниэль Грао, Дарио Грандинетти, Натали Поса, Пилар Кастро, Агустин Альмодовар
    Бюджет: €1 350 000
    Сборы в России: $187 929
    Мировая премьера: 8 апреля 2016
    Премьера (РФ): 4 августа 2016, «Capella Film»
    Описание: Дочь Джульетты таинственным образом исчезает. В попытке отыскать ее следы она возвращается в Мадрид и вспоминает свою бурную юность, любовь и страшную трагедию, которая отдалила ее от дочери. Призрак прошлого терзает ее в настоящем.-Качество исходника: Blu-Ray (BlueBird)
    Качество: BDRip
    Тип: HD (720p)
    Контейнер: M4V
    Видео: H.264, 1280x690, 1.85:1, 3 500 Kbps, 23.976 fps
    Аудио 1: Русский/Дублированный (iTunes), AAC / 2.0 / 160 Kbps / 48.0 KHz
    Аудио 2: Испанский/Оригинальная дорожка , AAC / 2.0 / 160 Kbps / 48.0 KHz
    Аудио 3: Русский/Дублированный (iTunes), AC-3 / 5.1 / 384 Kbps / 48.0 KHz
    Аудио 4: Испанский/Оригинальная дорожка , AC-3 / 5.1 / 640 Kbps / 48.0 KHz
    -

    iTunes Meta Tags

    Sort Name: Джульетта
    XID: Apple:vendor_id:2016-882569
    contentID: 1138312177
    Copyright: © 2016 Capella Film
    Screenwriters: Педро Альмодовар, Элис Манро
    Producers: Агустин Альмодовар, Эстер Гарсия, Диего Пахуэло
    Director: Педро Альмодовар
    Cast: Адриана Угарте, Росси де Пальма, Эмма Суарес, Мишель Хеннер, Инма Куэста, Даниэль Грао, Дарио Грандинетти, Натали Поса, Пилар Кастро, Хорхе Побес
    Studio: Canal+ France, El Deseo S.A., TVE
    Rating: 135
    Long Description: Дочь Джульетты таинственным образом исчезает. В попытке отыскать ее следы она возвращается в Мадрид и вспоминает свою бурную юность, любовь и страшную трагедию, которая отдалила ее от дочери. Призрак прошлого терзает ее в настоящем.
    Description: Дочь Джульетты таинственным образом исчезает. В попытке отыскать ее следы она возвращается в Мадрид и вспоминает свою бурную юность, любовь и страшную трагедию, которая отдалила ее от дочери. Призрак прошлого терзает ее в настоящем.
    Release Date: 2016-04-08T08:00:00Z
    Genre: Drama
    Artist: Педро Альмодовар
    Name: Джульетта

    MediaInfo

    General
    Complete name : /Users/imac/HandBrake/Julieta (720p HD).m4v
    Format : MPEG-4
    Codec ID : M4V
    File size : 3.33 GiB
    Duration : 1h 38mn
    Overall bit rate mode : Variable
    Overall bit rate : 4 832 Kbps
    Movie name : Джульетта
    Performer : Педро Альмодовар
    Director : Педро Альмодовар
    Actor : Адриана Угарте / Росси де Пальма / Эмма Суарес / Мишель Хеннер / Инма Куэста / Даниэль Грао / Дарио Грандинетти / Натали Поса / Пилар Кастро / Хорхе Побес
    Screenplay by : Педро Альмодовар / Элис Манро
    Producer : Агустин Альмодовар / Эстер Гарсия / Диего Пахуэло
    Production studio : Canal+ France, El Deseo S.A., TVE
    Genre : Drama
    ContentType : Short Film
    Description : Дочь Джульетты таинственным образом исчезает. В попытке отыскать ее следы она возвращается в Мадрид и вспоминает свою бурную юность, любовь и страшную трагедию, которая отдалила ее от дочери. Призрак прошлого терзает ее в настоящем.
    Recorded date : UTC 2016-04-08 08:00:00
    Encoded date : UTC 2016-08-23 10:34:48
    Tagged date : UTC 2016-08-23 10:41:29
    Copyright : © 2016 Capella Film
    Cover : Yes
    Rating : None
    Title/Sort : Джульетта
    LongDescription : Дочь Джульетты таинственным образом исчезает. В попытке отыскать ее следы она возвращается в Мадрид и вспоминает свою бурную юность, любовь и страшную трагедию, которая отдалила ее от дочери. Призрак прошлого терзает ее в настоящем.
    HDVideo : Yes
    AppleStoreCatalogID : 1138312177
    Vendor : Apple:vendor_id:2016-882569
    ContentRating : ru-movie|16+|375|
    Video #1
    ID : 1
    Format : AVC
    Format/Info : Advanced Video Codec
    Format profile : High@L3.1
    Format settings, CABAC : No
    Format settings, ReFrames : 3 frames
    Codec ID : avc1
    Codec ID/Info : Advanced Video Coding
    Duration : 1h 38mn
    Source duration : 1h 38mn
    Bit rate : 3 500 Kbps
    Width : 1 280 pixels
    Height : 690 pixels
    Display aspect ratio : 1.85:1
    Frame rate mode : Variable
    Frame rate : 23.976 fps
    Minimum frame rate : 23.974 fps
    Maximum frame rate : 23.981 fps
    Color space : YUV
    Chroma subsampling : 4:2:0
    Bit depth : 8 bits
    Scan type : Progressive
    Bits/(Pixel*Frame) : 0.165
    Stream size : 2.40 GiB (72%)
    Source stream size : 2.40 GiB (72%)
    Title : Main Program
    Writing library : x264 core 142 r2479 dd79a61
    Encoding settings : cabac=0 / ref=3 / deblock=1:-3:-3 / analyse=0x3:0x113 / me=umh / subme=9 / psy=1 / psy_rd=1.00:0.15 / mixed_ref=1 / me_range=32 / chroma_me=1 / trellis=0 / 8x8dct=1 / cqm=0 / deadzone=21,11 / fast_pskip=0 / chroma_qp_offset=-2 / threads=36 / lookahead_threads=3 / sliced_threads=0 / nr=0 / decimate=0 / interlaced=0 / bluray_compat=0 / constrained_intra=0 / bframes=3 / b_pyramid=0 / b_adapt=2 / b_bias=0 / direct=1 / weightb=0 / open_gop=0 / weightp=0 / keyint=240 / keyint_min=24 / scenecut=40 / intra_refresh=0 / rc_lookahead=40 / rc=2pass / mbtree=1 / bitrate=3500 / ratetol=1.0 / qcomp=0.65 / qpmin=0 / qpmax=69 / qpstep=4 / cplxblur=20.0 / qblur=0.5 / vbv_maxrate=9500 / vbv_bufsize=9500 / nal_hrd=none / filler=0 / ip_ratio=1.40 / aq=1:1.10
    Language : English
    Encoded date : UTC 2016-08-23 10:34:48
    Tagged date : UTC 2016-08-23 10:34:53
    Color range : Limited
    Color primaries : BT.709
    Transfer characteristics : BT.709
    Matrix coefficients : BT.709
    Video #2
    ID : 7
    Format : JPEG
    Codec ID : jpeg
    Duration : 1h 38mn
    Bit rate mode : Variable
    Bit rate : 394 bps
    Width : 640 pixels
    Height : 345 pixels
    Display aspect ratio : 1.85:1
    Frame rate mode : Constant
    Frame rate : 0.001 fps
    Color space : YUV
    Chroma subsampling : 4:2:0
    Bit depth : 8 bits
    Compression mode : Lossy
    Bits/(Pixel*Frame) : 1.784
    Stream size : 385 KiB (0%)
    Title : Chapter Images
    Language : English
    Encoded date : UTC 2016-08-23 10:35:26
    Tagged date : UTC 2016-08-23 10:35:26
    Audio #1
    ID : 2
    Format : AAC
    Format/Info : Advanced Audio Codec
    Format profile : LC
    Codec ID : 40
    Duration : 1h 38mn
    Bit rate mode : Variable
    Bit rate : 158 Kbps
    Maximum bit rate : 221 Kbps
    Channel(s) : 2 channels
    Channel positions : Front: L R
    Sampling rate : 48.0 KHz
    Compression mode : Lossy
    Stream size : 111 MiB (3%)
    Title : Russian Stereo
    Language : Russian
    Encoded date : UTC 2016-08-23 10:34:48
    Tagged date : UTC 2016-08-23 10:35:24
    Audio #2
    ID : 3
    Format : AAC
    Format/Info : Advanced Audio Codec
    Format profile : LC
    Codec ID : 40
    Duration : 1h 38mn
    Bit rate mode : Variable
    Bit rate : 157 Kbps
    Maximum bit rate : 245 Kbps
    Channel(s) : 2 channels
    Channel positions : Front: L R
    Sampling rate : 48.0 KHz
    Compression mode : Lossy
    Stream size : 111 MiB (3%)
    Title : Spanish Stereo
    Language : Spanish
    Encoded date : UTC 2016-08-23 10:34:48
    Tagged date : UTC 2016-08-23 10:35:24
    Audio #3
    ID : 4
    Format : AC-3
    Format/Info : Audio Coding 3
    Mode extension : CM (complete main)
    Format settings, Endianness : Big
    Codec ID : ac-3
    Duration : 1h 38mn
    Bit rate mode : Constant
    Bit rate : 384 Kbps
    Channel(s) : 6 channels
    Channel positions : Front: L C R, Side: L R, LFE
    Sampling rate : 48.0 KHz
    Bit depth : 16 bits
    Compression mode : Lossy
    Stream size : 271 MiB (8%)
    Title : Russian DD 5.1
    Language : Russian
    Encoded date : UTC 2016-08-23 10:34:48
    Tagged date : UTC 2016-08-23 10:35:24
    Audio #4
    ID : 5
    Format : AC-3
    Format/Info : Audio Coding 3
    Mode extension : CM (complete main)
    Format settings, Endianness : Big
    Codec ID : ac-3
    Duration : 1h 38mn
    Bit rate mode : Constant
    Bit rate : 640 Kbps
    Channel(s) : 6 channels
    Channel positions : Front: L C R, Side: L R, LFE
    Sampling rate : 48.0 KHz
    Bit depth : 16 bits
    Compression mode : Lossy
    Stream size : 451 MiB (13%)
    Title : Spanish DD 5.1
    Language : Spanish
    Encoded date : UTC 2016-08-23 10:34:48
    Tagged date : UTC 2016-08-23 10:35:24
    Menu #1
    00:00:00.000 : Chapter 1
    00:11:08.459 : Chapter 2
    00:25:18.559 : Chapter 3
    00:38:46.157 : Chapter 4
    00:50:14.178 : Chapter 5
    01:02:45.220 : Chapter 6
    01:15:14.468 : Chapter 7
    01:28:20.629 : Chapter 8
    Menu #2
    ID : 6
    Codec ID : text
    Duration : 1h 38mn
    Language : Spanish
    Encoded date : UTC 2016-08-23 10:35:24
    Tagged date : UTC 2016-08-23 10:35:24
    Bit rate mode : CBR
    00:00:00.000 : Chapter 1
    00:11:08.459 : Chapter 2
    00:25:18.559 : Chapter 3
    00:38:46.157 : Chapter 4
    00:50:14.178 : Chapter 5
    01:02:45.220 : Chapter 6
    01:15:14.468 : Chapter 7
    01:28:20.629 : Chapter 8

    x264 лог

    x264 [info]: frame I:976   Avg QP:16.18  size:115626
    x264 [info]: frame P:55245 Avg QP:18.76  size: 32917
    x264 [info]: frame B:85483 Avg QP:20.27  size:  7515
    x264 [info]: consecutive B-frames:  6.2% 17.5% 67.7%  8.6%
    x264 [info]: mb I  I16..4:  9.4% 55.0% 35.6%
    x264 [info]: mb P  I16..4:  1.2%  4.1%  2.3%  P16..4: 48.3% 22.2%  9.7%  0.0%  0.0%    skip:12.3%
    x264 [info]: mb B  I16..4:  0.1%  0.6%  0.3%  B16..8: 44.9%  8.7%  1.1%  direct: 2.6%  skip:41.7%  L0:38.2% L1:55.5% BI: 6.3%
    x264 [info]: 8x8 transform intra:54.0% inter:48.2%
    x264 [info]: coded y,uvDC,uvAC intra: 80.1% 78.4% 51.0% inter: 21.2% 20.7% 11.1%
    x264 [info]: i16 v,h,dc,p: 48% 13%  5% 35%
    x264 [info]: i8 v,h,dc,ddl,ddr,vr,hd,vl,hu: 15%  7%  3% 10% 15% 15% 13% 12% 10%
    x264 [info]: i4 v,h,dc,ddl,ddr,vr,hd,vl,hu: 21%  7%  3% 10% 14% 15% 12% 10%  8%
    x264 [info]: i8c dc,h,v,p: 47% 17% 24% 12%
    x264 [info]: ref P L0: 73.9% 15.2% 10.9%
    x264 [info]: ref B L0: 82.2% 17.8%
    x264 [info]: kb/s:3483.79

    Скриншоты

    -

    Релиз подготовлен для просмотра на Apple TV, iPad, iPhone, iPod Touch.
    Для просмотра данного релиза на компьютере с ОС Windows рекомендуется использовать VLC media player
    Скачать .torrent

    Скачать торрент-файл бесплатно и на максимальной скорости!

    Как скачивать? · Что такое торрент? · Рейтинг и ограничения

    !ВНИМАНИЕ!
    Сайт не распространяет и не хранит электронные версии произведений, а занимается лишь лишь предоставлением доступа к создаваемому пользователями каталогу ссылок на торрент-файлы, которые содержат только списки хеш-сумм, убедительная просьба с жалобами обращаться напрямую к пользователю. Файлы для обмена на трекере предоставлены пользователями сайта, и администрация не несёт ответственности за их содержание. Просьба не заливать файлы, защищенные авторскими правами, а также файлы нелегального содержания!


    _________________
    [Профиль] [ЛС]
    Показать сообщения:    
    Ответить на тему

    Текущее время: Сегодня, в 08:01

    Часовой пояс: GMT + 2



    Вы не можете начинать темы
    Вы не можете отвечать на сообщения
    Вы не можете редактировать свои сообщения
    Вы не можете удалять свои сообщения
    Вы не можете голосовать в опросах
    Вы не можете прикреплять файлы к сообщениям
    Вы не можете скачивать файлы