BitTorrentTracker PerecTracker.org
BitTorrentTracker PerecTracker.org
    
Регистрация  ·  Вход
 
 · 
Забыли пароль?

  • Герой и Ужас / Герой и Монстр / Hero and the Terror (Уильям Тэннен / William Tannen) [1988, США, триллер, боевик, драма, криминал, BDRip 720p] 2x MVO + 2x AVO + Sub Eng + Original Eng

    Ответить на тему
     
    Автор Сообщение

    Light

    Создавать темы 23-Авг-2016 15:47

           

    [Цитировать]

    Герой и Ужас / Герой и Монстр / Hero and the Terror
    Страна: США
    Жанр: триллер, боевик, драма, криминал
    Год выпуска: 1988
    Продолжительность: 01:36:43
    Перевод: Профессиональный (многоголосый закадровый) R5
    + Профессиональный (многоголосый закадровый) Paramount Channel
    + Авторский (одноголосый закадровый) В.Горчаков
    + Авторский (одноголосый закадровый) А.Михалев
    Cубтитры: английские
    Оригинальная аудиодорожка: английский-Режиссер: Уильям Тэннен / William Tannen-В ролях: Чак Норрис, Бринн Тэйер, Стив Джеймс, Джек О`Хэллоран, Джефри Крамер, Рон О`Нил, Мёрфи Данн, Хэзер Блоджет, Тони ДиБенедетто, Билли Драго, Карен Уиттер, Лорри Голдмен, Кристин Вагнер, Билл Харрис, Брэнском Ричмонд, Тииу Леек, Саладин Джеймс, Мишель Майклс, Люси Ли Флиппин, Джон Солари, Роберт Уолл-Описание: Полицейский Дэнни О’Брайен чудом остался жив при задержании маньяка-душителя Саймона Муна по прозвищу «Монстр». За это дело пресса прозвала его Героем. В кошмарных снах Дэнни вновь и вновь возвращается в этот страшный днь. Проходит несколько лет, Дэнни прошёл курс реабилитации и уже начал забывать о Муне, но вдруг эти навязчивые сны опять начинают его тревожить. И не случайно, оказалось, что Монстр сбежал из клиники и нашёл себе новое логово в Лос-Анжелесе - где-то в недрах недавно перестроенного театра. Его жертвами уже стали несколько женщин, а затем и старый друг Дэнни. Герой вновь выходит на след Монстра.-Релиз:
    by delia-Качество видео: BDRip | SbR
    Формат видео: MKV
    Видео: 1280x694 at 23.976 fps, x264@L4.1, ~ 12500 kbps avg
    Аудио 1: Russian: 48 kHz, AC3, 2/0 (L,R) ch, ~192 kbps avg |Многоголосый закадровый, R5|
    Аудио 2: Russian: 48 kHz, AC3, 2/0 (L,R) ch, ~192 kbps avg |Многоголосый закадровый, Paramount Channel|
    Аудио 3: Russian: 48 kHz/16-bit, DTS 2.0, ~1509 kbps avg |В.Горчаков|
    Аудио 4: Russian: 48 kHz/16-bit, DTS 2.0, ~1509 kbps avg |А.Михалев|
    Аудио 5: English: 48 kHz/16-bit, FLAC 2.0, ~ kbps avg--Цитата:
    Цитата:

    • Сохранены оригинальные главы как на Blu-ray.
    • Дорожки №3, 4 получены наложением чистых голосов на L,R каналы оригинального DTS-HD MA , спасибо Spiellberg

    MediaInfo

    Format                      : Matroska
    Format version              : Version 4 / Version 2
    File size                   : 11.1 GiB
    Duration                    : 1 h 36 min
    Overall bit rate mode       : Variable
    Overall bit rate            : 16.5 Mb/s
    Encoded date                : UTC 2016-08-19 14:06:12
    Writing application         : mkvmerge v8.3.0 ('Over the Horizon') 32bit
    Writing library             : libebml v1.3.1 + libmatroska v1.4.2
    Cover                       : Yes
    Attachments                 : cover.jpg
    Video
    ID                          : 1
    Format                      : AVC
    Format/Info                 : Advanced Video Codec
    Format profile              : High@L4.1
    Format settings, CABAC      : Yes
    Format settings, ReFrames   : 9 frames
    Codec ID                    : V_MPEG4/ISO/AVC
    Duration                    : 1 h 36 min
    Bit rate                    : 12.5 Mb/s
    Width                       : 1 280 pixels
    Height                      : 694 pixels
    Display aspect ratio        : 1.85:1
    Frame rate mode             : Constant
    Frame rate                  : 23.976 (23976/1000) FPS
    Color space                 : YUV
    Chroma subsampling          : 4:2:0
    Bit depth                   : 8 bits
    Scan type                   : Progressive
    Bits/(Pixel*Frame)          : 0.587
    Stream size                 : 8.44 GiB (76%)
    Writing library             : x264 core 148 r2705+54 9f484c1 t_mod_Custom [8-bit@all X86_64]
    Encoding settings           : cabac=1 / ref=9 / deblock=1:-3:-3 / analyse=0x3:0x133 / me=umh / subme=10 / psy=1 / fade_compensate=0.00 / psy_rd=1.00:0.05 / mixed_ref=1 / me_range=24 / chroma_me=1 / trellis=2 / 8x8dct=1 / cqm=0 / deadzone=21,11 / fast_pskip=0 / chroma_qp_offset=-3 / threads=6 / lookahead_threads=1 / sliced_threads=0 / nr=0 / decimate=1 / interlaced=0 / bluray_compat=0 / constrained_intra=0 / fgo=0 / bframes=8 / b_pyramid=2 / b_adapt=2 / b_bias=0 / direct=3 / weightb=1 / open_gop=0 / weightp=2 / keyint=250 / keyint_min=23 / scenecut=40 / intra_refresh=0 / rc=2pass / mbtree=0 / bitrate=12500 / ratetol=1.0 / qcomp=0.65 / qpmin=0:0:0 / qpmax=69:69:69 / qpstep=4 / cplxblur=20.0 / qblur=0.5 / ip_ratio=1.30 / pb_ratio=1.20 / aq=1:0.65 / aq-sensitivity=10.00 / aq-factor=1.00:1.00:1.00 / aq2=1:0.60 / aq2-sensitivity=15.00 / aq2-factor=1.00:1.00:1.00 / aq3=1:[0.50:0.50]:[0.50:0.50]:[0.50:0.50]:[0.50:0.50] / aq3-sensitivity=10.00 / aq3-factor=[1.00:1.00]:[1.00:1.00]:[1.00:1.00] / aq3-boundary=192:64:24
    Language                    : English
    Default                     : Yes
    Forced                      : No
    Color range                 : Limited
    Matrix coefficients         : BT.709
    Audio #1
    ID                          : 2
    Format                      : AC-3
    Format/Info                 : Audio Coding 3
    Mode extension              : CM (complete main)
    Format settings, Endianness : Big
    Codec ID                    : A_AC3
    Duration                    : 1 h 36 min
    Bit rate mode               : Constant
    Bit rate                    : 192 kb/s
    Channel(s)                  : 2 channels
    Channel positions           : Front: L R
    Sampling rate               : 48.0 kHz
    Frame rate                  : 31.250 FPS (1536 spf)
    Compression mode            : Lossy
    Stream size                 : 133 MiB (1%)
    Title                       : Многоголосый закадровый
    Language                    : Russian
    Default                     : Yes
    Forced                      : No
    Audio #2
    ID                          : 3
    Format                      : AC-3
    Format/Info                 : Audio Coding 3
    Mode extension              : CM (complete main)
    Format settings, Endianness : Big
    Codec ID                    : A_AC3
    Duration                    : 1 h 36 min
    Bit rate mode               : Constant
    Bit rate                    : 192 kb/s
    Channel(s)                  : 2 channels
    Channel positions           : Front: L R
    Sampling rate               : 48.0 kHz
    Frame rate                  : 31.250 FPS (1536 spf)
    Compression mode            : Lossy
    Stream size                 : 133 MiB (1%)
    Title                       : Многоголосый закадровый, Paramount Channel
    Language                    : Russian
    Default                     : No
    Forced                      : No
    Audio #3
    ID                          : 4
    Format                      : DTS
    Format/Info                 : Digital Theater Systems
    Mode                        : 16
    Format settings, Endianness : Big
    Codec ID                    : A_DTS
    Duration                    : 1 h 36 min
    Bit rate mode               : Constant
    Bit rate                    : 1 509 kb/s
    Channel(s)                  : 2 channels
    Channel positions           : Front: L R
    Sampling rate               : 48.0 kHz
    Frame rate                  : 93.750 FPS (512 spf)
    Bit depth                   : 24 bits
    Compression mode            : Lossy
    Stream size                 : 1.02 GiB (9%)
    Title                       : Одноголосый закадровый, В.Горчаков
    Language                    : Russian
    Default                     : No
    Forced                      : No
    Audio #4
    ID                          : 5
    Format                      : DTS
    Format/Info                 : Digital Theater Systems
    Mode                        : 16
    Format settings, Endianness : Big
    Codec ID                    : A_DTS
    Duration                    : 1 h 36 min
    Bit rate mode               : Constant
    Bit rate                    : 1 509 kb/s
    Channel(s)                  : 2 channels
    Channel positions           : Front: L R
    Sampling rate               : 48.0 kHz
    Frame rate                  : 93.750 FPS (512 spf)
    Bit depth                   : 24 bits
    Compression mode            : Lossy
    Stream size                 : 1.02 GiB (9%)
    Title                       : Одноголосый закадровый, А.Михалев
    Language                    : Russian
    Default                     : No
    Forced                      : No
    Audio #5
    ID                          : 6
    Format                      : FLAC
    Format/Info                 : Free Lossless Audio Codec
    Codec ID                    : A_FLAC
    Duration                    : 1 h 36 min
    Bit rate mode               : Variable
    Bit rate                    : 581 kb/s
    Channel(s)                  : 2 channels
    Channel positions           : Front: L R
    Sampling rate               : 48.0 kHz
    Frame rate                  : 11.719 FPS (4096 spf)
    Bit depth                   : 16 bits
    Stream size                 : 402 MiB (4%)
    Title                       : 581 Kbps
    Writing library             : libFLAC 1.2.1 (UTC 2007-09-17)
    Language                    : English
    Default                     : No
    Forced                      : No
    Text
    ID                          : 7
    Format                      : UTF-8
    Codec ID                    : S_TEXT/UTF8
    Codec ID/Info               : UTF-8 Plain Text
    Duration                    : 1 h 31 min
    Bit rate                    : 42 b/s
    Count of elements           : 730
    Stream size                 : 28.6 KiB (0%)
    Language                    : English
    Default                     : No
    Forced                      : No
    Menu
    00:00:00.000                : en:00:00:00.000
    00:09:42.581                : en:00:09:42.581
    00:16:01.961                : en:00:16:01.961
    00:24:41.480                : en:00:24:41.480
    00:32:35.953                : en:00:32:35.953
    00:40:15.413                : en:00:40:15.413
    00:48:22.900                : en:00:48:22.900
    00:56:42.398                : en:00:56:42.398
    01:04:36.873                : en:01:04:36.873
    01:13:58.434                : en:01:13:58.434
    01:19:39.774                : en:01:19:39.774
    01:28:45.319                : en:01:28:45.319

    Скриншоты

    Скачать .torrent

    Скачать торрент-файл бесплатно и на максимальной скорости!

    Как скачивать? · Что такое торрент? · Рейтинг и ограничения

    !ВНИМАНИЕ!
    Сайт не распространяет и не хранит электронные версии произведений, а занимается лишь лишь предоставлением доступа к создаваемому пользователями каталогу ссылок на торрент-файлы, которые содержат только списки хеш-сумм, убедительная просьба с жалобами обращаться напрямую к пользователю. Файлы для обмена на трекере предоставлены пользователями сайта, и администрация не несёт ответственности за их содержание. Просьба не заливать файлы, защищенные авторскими правами, а также файлы нелегального содержания!


    _________________
    [Профиль] [ЛС]
    Показать сообщения:    
    Ответить на тему

    Текущее время: Сегодня, в 22:25

    Часовой пояс: GMT + 2



    Вы не можете начинать темы
    Вы не можете отвечать на сообщения
    Вы не можете редактировать свои сообщения
    Вы не можете удалять свои сообщения
    Вы не можете голосовать в опросах
    Вы не можете прикреплять файлы к сообщениям
    Вы не можете скачивать файлы