BitTorrentTracker PerecTracker.org
BitTorrentTracker PerecTracker.org
    
Регистрация  ·  Вход
 
 · 
Забыли пароль?

  • Тайный поклонник / Secret Admirer (Дэвид Гринуолт / David Greenwalt) [1985, США, романтическая комедия, BDRemux 1080p] 2x DVO (НТВ+, ELROM) + VO (Andron1818) + 2x Sub (Rus, Eng) + Original Eng

    Ответить на тему
     
    Автор Сообщение

    Light

    Создавать темы 23-Авг-2016 15:47

           

    [Цитировать]

    Тайный поклонник / Secret Admirer«Toni gave Michael a letter, so he could give Debbie one...»
    Страна: США
    Жанр: романтическая комедия
    Год выпуска: 1985
    Продолжительность: 01:37:52
    -
    Перевод 1: Профессиональный (двухголосый закадровый) НТВ+
    Перевод 2: Профессиональный (двухголосый закадровый) ELROM
    Перевод 3: Одноголосый закадровый Andron1818
    Cубтитры: русские, английские
    Оригинальная аудиодорожка: английский
    -
    Режиссер: Дэвид Гринуолт / David Greenwalt
    В ролях: Си Томас Хауэлл, Лори Лафлин, Келли Престон, Ди Уоллес-Стоун, Клифф Де Янг, Ли Тейлор-Янг, Фред Уорд, Кэйси Семашко, Джеффри Блейк, Родни Пирсон
    -
    Описание: Любовное письмо, написанное школьницей старших классов, попадает не в те руки, после чего начинается серия комических эпизодов. Её одноклассники, да и родители стали участниками этой милой комедии ошибок.

    Тип релиза: BDRemux 1080p
    Контейнер: MKV
    Видео: MPEG-4 AVC / NTSC 16:9 / 1920x1080 (1,85:1) / 28924 kbps / 23,976 fps / 0.582 bit/pixel / High@L4.1
    Аудио 1: Russian / Dolby Digital Audio / 2.0 Ch / 48 kHz / 192 kbps / 16 bit / DVO / НТВ+
    Аудио 2: Russian / Dolby Digital Audio / 2.0 Ch / 48 kHz / 192 kbps / 16 bit / DVO / ELROM
    Аудио 3: Russian / Dolby Digital Audio / 2.0 Ch / 48 kHz / 192 kbps / 16 bit / VO / Andron1818
    Аудио 4: English / DTS-HD Master Audio / 2.0 Ch / 48 kHz / 1700 kbps / 24-bit (DTS Core: 2.0 Ch / 48 kHz / 1509 kbps / 24-bit) / Original
    Формат субтитров: softsub (SRT)
    Навигация по главам: есть

    Примечание

    Английские субтитры с DVD пересобрал под фразы оригинала с диска Blu-Ray (на нем вообще нет никаких сабов), соответственно русские сабы синхронизировались под эти оригинальные субтитры с DVD.

    MediaInfo

    Общее
    Уникальный идентификатор                 : 235546309951163539818124821569200048499 (0xB13491B4A1F8C66CAB8F56897FE1C973)
    Полное имя                               : N:\BDRemux 1080p\Secret Admirer.1985.BDRemux.1080p.mkv
    Формат                                   : Matroska
    Версия формата                           : Version 4 / Version 2
    Размер файла                             : 21,3 Гбайт
    Продолжительность                        : 1 ч. 37 м.
    Режим общего битрейта                    : Переменный
    Общий поток                              : 31,2 Мбит/сек
    Название фильма                          : Release for RuTracker © flaSI-I
    Дата кодирования                         : UTC 2016-08-20 02:31:19
    Программа кодирования                    : mkvmerge v9.3.1 ('Mask Machine') 64bit
    Библиотека кодирования                   : libebml v1.3.4 + libmatroska v1.4.5
    Видео
    Идентификатор                            : 1
    Формат                                   : AVC
    Формат/Информация                        : Advanced Video Codec
    Профиль формата                          : High@L4.1
    Параметр CABAC формата                   : Да
    Параметр ReFrames формата                : 4 кадра
    Идентификатор кодека                     : V_MPEG4/ISO/AVC
    Продолжительность                        : 1 ч. 37 м.
    Вид битрейта                             : Переменный
    Битрейт                                  : 28,9 Мбит/сек
    Максимальный битрейт                     : 38,0 Мбит/сек
    Ширина                                   : 1920 пикселей
    Высота                                   : 1080 пикселей
    Соотношение сторон                       : 16:9
    Режим частоты кадров                     : Постоянный
    Частота кадров                           : 23,976 (24000/1001) кадра/сек
    Цветовое пространство                    : YUV
    Субдискретизация насыщенности            : 4:2:0
    Битовая глубина                          : 8 бит
    Тип развёртки                            : Прогрессивная
    Бит/(Пиксели*Кадры)                      : 0.582
    Размер потока                            : 19,8 Гбайт (93%)
    Язык                                     : English
    Default                                  : Да
    Forced                                   : Нет
    Аудио #1
    Идентификатор                            : 2
    Формат                                   : AC-3
    Формат/Информация                        : Audio Coding 3
    Расширение режима                        : CM (complete main)
    Параметр Endianness формата              : Big
    Идентификатор кодека                     : A_AC3
    Продолжительность                        : 1 ч. 37 м.
    Вид битрейта                             : Постоянный
    Битрейт                                  : 192 Кбит/сек
    Каналы                                   : 2 канала
    Расположение каналов                     : Front: L R
    Частота                                  : 48,0 КГц
    Частота кадров                           : 31,250 кадров/сек (1536 spf)
    Метод сжатия                             : С потерями
    Размер потока                            : 134 Мбайт (1%)
    Заголовок                                : DVO / НТВ+
    Язык                                     : Russian
    Default                                  : Да
    Forced                                   : Нет
    Аудио #2
    Идентификатор                            : 3
    Формат                                   : AC-3
    Формат/Информация                        : Audio Coding 3
    Расширение режима                        : CM (complete main)
    Параметр Endianness формата              : Big
    Идентификатор кодека                     : A_AC3
    Продолжительность                        : 1 ч. 37 м.
    Вид битрейта                             : Постоянный
    Битрейт                                  : 192 Кбит/сек
    Каналы                                   : 2 канала
    Расположение каналов                     : Front: L R
    Частота                                  : 48,0 КГц
    Частота кадров                           : 31,250 кадров/сек (1536 spf)
    Метод сжатия                             : С потерями
    Размер потока                            : 134 Мбайт (1%)
    Заголовок                                : DVO / ELROM
    Язык                                     : Russian
    Default                                  : Нет
    Forced                                   : Нет
    Аудио #3
    Идентификатор                            : 4
    Формат                                   : AC-3
    Формат/Информация                        : Audio Coding 3
    Расширение режима                        : CM (complete main)
    Параметр Endianness формата              : Big
    Идентификатор кодека                     : A_AC3
    Продолжительность                        : 1 ч. 37 м.
    Вид битрейта                             : Постоянный
    Битрейт                                  : 192 Кбит/сек
    Каналы                                   : 2 канала
    Расположение каналов                     : Front: L R
    Частота                                  : 48,0 КГц
    Частота кадров                           : 31,250 кадров/сек (1536 spf)
    Метод сжатия                             : С потерями
    Размер потока                            : 134 Мбайт (1%)
    Заголовок                                : VO / Andron1818
    Язык                                     : Russian
    Default                                  : Нет
    Forced                                   : Нет
    Аудио #4
    Идентификатор                            : 5
    Формат                                   : DTS
    Формат/Информация                        : Digital Theater Systems
    Профиль формата                          : MA / Core
    Режим                                    : 16
    Параметр Endianness формата              : Big
    Идентификатор кодека                     : A_DTS
    Продолжительность                        : 1 ч. 37 м.
    Вид битрейта                             : Переменный / Постоянный
    Битрейт                                  : 1700 Кбит/сек / 1509 Кбит/сек
    Каналы                                   : 2 канала
    Расположение каналов                     : Front: L R
    Частота                                  : 48,0 КГц
    Частота кадров                           : 93,750 кадра/сек (512 spf)
    Битовая глубина                          : 24 бит
    Метод сжатия                             : Без потерь / Lossy
    Размер потока                            : 1,16 Гбайт (5%)
    Заголовок                                : Original
    Язык                                     : English
    Default                                  : Нет
    Forced                                   : Нет
    Текст #1
    Идентификатор                            : 6
    Формат                                   : UTF-8
    Идентификатор кодека                     : S_TEXT/UTF8
    Идентификатор кодека/Информация          : UTF-8 Plain Text
    Продолжительность                        : 1 ч. 33 м.
    Битрейт                                  : 103 бит/сек
    Count of elements                        : 1302
    Размер потока                            : 70,9 Кбайт (0%)
    Заголовок                                : RUSSiAN
    Язык                                     : Russian
    Default                                  : Нет
    Forced                                   : Нет
    Текст #2
    Идентификатор                            : 7
    Формат                                   : UTF-8
    Идентификатор кодека                     : S_TEXT/UTF8
    Идентификатор кодека/Информация          : UTF-8 Plain Text
    Продолжительность                        : 1 ч. 29 м.
    Битрейт                                  : 62 бит/сек
    Count of elements                        : 1270
    Размер потока                            : 41,1 Кбайт (0%)
    Заголовок                                : Original / DVD
    Язык                                     : English
    Default                                  : Нет
    Forced                                   : Нет
    Меню
    00:00:00.000                             : en:  1. Main Titles / Debbie
    00:05:55.154                             : en:  2. Love Letter
    00:10:21.220                             : en:  3. Kappa Omega Party
    00:17:18.971                             : en:  4. Just Good Friends
    00:21:37.396                             : en:  5. Confession Confusion
    00:27:42.427                             : en:  6. Hungry
    00:29:26.664                             : en:  7. A Really Good Thing
    00:32:15.833                             : en:  8. Gutsy Virgins
    00:36:23.614                             : en:  9. The Power of Words
    00:41:57.414                             : en:10. Rendezvous
    00:47:16.733                             : en:11. The Concept of Giving
    00:51:27.484                             : en:12. Make-Out Mountain
    00:55:12.575                             : en:13. Close Call
    00:57:52.235                             : en:14. Steverino
    01:00:47.910                             : en:15. Family Feud
    01:05:05.268                             : en:16. Party Plans
    01:06:00.456                             : en:17. Bad Date
    01:09:53.556                             : en:18. The Right Thing
    01:13:46.255                             : en:19. Saturday Snafu
    01:19:47.616                             : en:20. Oh...
    01:23:04.145                             : en:21. Toni
    01:26:24.345                             : en:22. Out of Time
    01:32:56.070                             : en:23. "I Love You!"
    01:34:31.332                             : en:24. End Credits

    Скриншоты

    Скачать .torrent

    Скачать торрент-файл бесплатно и на максимальной скорости!

    Как скачивать? · Что такое торрент? · Рейтинг и ограничения

    !ВНИМАНИЕ!
    Сайт не распространяет и не хранит электронные версии произведений, а занимается лишь лишь предоставлением доступа к создаваемому пользователями каталогу ссылок на торрент-файлы, которые содержат только списки хеш-сумм, убедительная просьба с жалобами обращаться напрямую к пользователю. Файлы для обмена на трекере предоставлены пользователями сайта, и администрация не несёт ответственности за их содержание. Просьба не заливать файлы, защищенные авторскими правами, а также файлы нелегального содержания!


    _________________
    [Профиль] [ЛС]
    Показать сообщения:    
    Ответить на тему

    Текущее время: Сегодня, в 13:02

    Часовой пояс: GMT + 2



    Вы не можете начинать темы
    Вы не можете отвечать на сообщения
    Вы не можете редактировать свои сообщения
    Вы не можете удалять свои сообщения
    Вы не можете голосовать в опросах
    Вы не можете прикреплять файлы к сообщениям
    Вы не можете скачивать файлы