BitTorrentTracker PerecTracker.org
BitTorrentTracker PerecTracker.org
    
Регистрация  ·  Вход
 
 · 
Забыли пароль?

  • Нью-йоркская серенада / New York City Serenade (Фрэнк Уэйли / Frank Whaley) [2007, США, драма, комедия, HDTV 1080i] MVO

    Ответить на тему
     
    Автор Сообщение

    Light

    Создавать темы 23-Авг-2016 15:47

           

    [Цитировать]

    Нью-йоркская серенада / New York City Serenade
    Страна: США
    Жанр: драма, комедия
    Год выпуска: 2007
    Продолжительность: 01:38%35
    Перевод: Профессиональный (многоголосый закадровый)
    Cубтитры: нет
    Оригинальная аудиодорожка: нет
    Режиссер: Фрэнк Уэйли / Frank Whaley
    В ролях: Фредди Принц мл., Крис Клейн, Джэми-Линн Сиглер, Бен Шварц, Кристофер ДеБласио, Тодд Бэрри, Кейт Бэйли, Эмма Белл, Джордж Брайант II, Хезер Буча
    Описание: В центре картины двое друзей детства: офисный рабочий, играющий на ударных в рок-н-ролл группе, и талантливый кинорежиссер. Эта переживающая не лучшие времена парочка пытается разобраться в своих жизнях во время совместной поездки на проходящий в штате Канзас кинофестиваль.
    Сэмпл: http://multi-up.com/1114546

    Тип релиза: HDTV 1080i
    Контейнер: TS
    Видео: AVC/H.264, PAL, 1920х1080 (16:9), 25 fps, 8553 Кбит/сек
    Аудио: русский, MP2, 48000 Hz, 192 Кбит/сек, 2 ch

    MediaInfo

    Общее
    Идентификатор : 1 (0x1)
    Полное имя : C:\Users\User\Desktop\New York City Serenade.ts
    Формат : MPEG-TS
    Размер файла : 6,34 Гбайт
    Продолжительность : 1 ч. 38 м.
    Режим общего битрейта : Переменный
    Общий поток : 9202 Кбит/сек
    Максимальный общий битрейт : 35,5 Мбит/сек
    Видео
    Идентификатор : 4113 (0x1011)
    Идентификатор меню : 1 (0x1)
    Формат : AVC
    Формат/Информация : Advanced Video Codec
    Профиль формата : Main@L4.0
    Параметр CABAC формата : Да
    Параметр ReFrames формата : 4 кадра
    Идентификатор кодека : 27
    Продолжительность : 1 ч. 38 м.
    Вид битрейта : Переменный
    Битрейт : 8553 Кбит/сек
    Максимальный битрейт : 40,0 Мбит/сек
    Ширина : 1920 пикселей
    Высота : 1080 пикселей
    Соотношение сторон : 16:9
    Частота кадров : 25,000 кадров/сек
    Цветовое пространство : YUV
    Субдискретизация насыщенности : 4:2:0
    Битовая глубина : 8 бит
    Тип развёртки : Чересстрочная
    Порядок развёртки : Верхнее поле первое
    Бит/(Пиксели*Кадры) : 0.165
    Размер потока : 5,89 Гбайт (93%)
    colour_range : Limited
    Аудио
    Идентификатор : 4352 (0x1100)
    Идентификатор меню : 1 (0x1)
    Формат : MPEG Audio
    Версия формата : Version 1
    Профиль формата : Layer 2
    Идентификатор кодека : 4
    Продолжительность : 1 ч. 38 м.
    Вид битрейта : Постоянный
    Битрейт : 192 Кбит/сек
    Каналы : 2 канала
    Частота : 48,0 КГц
    Метод сжатия : С потерями
    Размер потока : 135 Мбайт (2%)
    Язык : Russian

    Скриншот с названием фильма

    Скриншоты

    Скачать .torrent

    Скачать торрент-файл бесплатно и на максимальной скорости!

    Как скачивать? · Что такое торрент? · Рейтинг и ограничения

    !ВНИМАНИЕ!
    Сайт не распространяет и не хранит электронные версии произведений, а занимается лишь лишь предоставлением доступа к создаваемому пользователями каталогу ссылок на торрент-файлы, которые содержат только списки хеш-сумм, убедительная просьба с жалобами обращаться напрямую к пользователю. Файлы для обмена на трекере предоставлены пользователями сайта, и администрация не несёт ответственности за их содержание. Просьба не заливать файлы, защищенные авторскими правами, а также файлы нелегального содержания!


    _________________
    [Профиль] [ЛС]
    Показать сообщения:    
    Ответить на тему

    Текущее время: Сегодня, в 00:04

    Часовой пояс: GMT + 2



    Вы не можете начинать темы
    Вы не можете отвечать на сообщения
    Вы не можете редактировать свои сообщения
    Вы не можете удалять свои сообщения
    Вы не можете голосовать в опросах
    Вы не можете прикреплять файлы к сообщениям
    Вы не можете скачивать файлы