Register  ·  Log in
Forgot password?

  • Мужчина, которого слишком сильно любили / L\'homme qu\'on aimait trop (Андре Тешине / André Téchiné) [2014, Франция, драма, BDRip] MVO

    Reply to topic
    Author Message


    Post 23-Aug-2016 16:47



    Мужчина, которого слишком сильно любили / L'homme qu'on aimait trop
    Страна: Франция
    Жанр: драма
    Год выпуска: 2014
    Продолжительность: 01:56:44
    Перевод: Профессиональный (многоголосый закадровый)
    Cубтитры: нет
    Оригинальная аудиодорожка: нет-Режиссер: Андре Тешине / André Téchiné-В ролях: Катрин Денёв, Гийом Кане, Адель Энель, Жюдит Шемла, Мауро Конте, Жан Корсо, Хьюго Саблич, Жан-Пьер Гетти, Паскаль Мерсье, Тамара Де Линер-Описание: После неудачного брака Аньес Ле Ру возвращается из Африки к матери Рене, владелице Казино Ле Пале. Молодая девушка влюбляется в поверенного в делах Рене, Мориса Агнеле, красавца-юриста старше ее на 10 лет. Будучи одним из акционеров Казино, Аньес хочет продать свою наследную долю, чтобы стать независимой, но ее мать упрямо отказывается. В самый разгар конфликта между мафией и владельцами казино Морис переходит на сторону противника и предлагает Аньес три миллиона франков за то, чтобы она проголосовала против своей матери...-Качество видео: BDRip
    Формат видео: AVI
    Видео: 688x288 (2.39:1), 23.976 fps, XviD build 73 ~755 kbps avg, 0.16 bit/pixel
    Аудио: 48 kHz, MPEG Layer 3, 2 ch, ~128.00 kbps avg--


    Format                      : AVI
    Format/Info                 : Audio Video Interleave
    File size                   : 746 MiB
    Duration                    : 1 h 56 min
    Overall bit rate            : 893 kb/s
    Writing application         : VirtualDubMod | || (build 2550/release)
    Writing library             : VirtualDubMod build 2550/release
    ID                          : 0
    Format                      : MPEG-4 Visual
    Format profile              : Advanced Simple@L5
    Format settings, BVOP       : 1
    Format settings, QPel       : No
    Format settings, GMC        : No warppoints
    Format settings, Matrix     : Custom
    Codec ID                    : XVID
    Codec ID/Hint               : XviD
    Duration                    : 1 h 56 min
    Bit rate                    : 756 kb/s
    Width                       : 688 pixels
    Height                      : 288 pixels
    Display aspect ratio        : 2.40:1
    Frame rate                  : 23.976 (23976/1000) FPS
    Color space                 : YUV
    Chroma subsampling          : 4:2:0
    Bit depth                   : 8 bits
    Scan type                   : Progressive
    Compression mode            : Lossy
    Bits/(Pixel*Frame)          : 0.159
    Stream size                 : 631 MiB (85%)
    Writing library             : XviD 73
    ID                          : 1
    Format                      : MPEG Audio
    Format version              : Version 1
    Format profile              : Layer 3
    Codec ID                    : 55
    Codec ID/Hint               : MP3
    Duration                    : 1 h 56 min
    Bit rate mode               : Constant
    Bit rate                    : 128 kb/s
    Channel(s)                  : 2 channels
    Sampling rate               : 48.0 kHz
    Compression mode            : Lossy
    Stream size                 : 107 MiB (14%)
    Alignment                   : Aligned on interleaves
    Interleave, duration        : 42  ms (1.00 video frame)
    Interleave, preload duratio : 504  ms
    Writing library             : LAME3.99r
    Encoding settings           : -m s -V 4 -q 2 -lowpass 17 -b 128


    Download .torrent

    Download free and at maximum speed!

    How to Download? · What is a torrent? · Ratings and Limitations

    The site does not extend and does not store electronic(digital) versions of products, and only gives access to a reference catalogue created by users on torrent-files which contain only lists of the hash-sums, the earnest entreaty, with complaints(abuse) to access directly to the user. Files for an exchange on tracker are given by users of a site, and the administration does not bear the responsibility for their maintenance. The request to not fill in the files protected by copyrights, and also files of the illegal maintenance!

    [Profile] [PM]
    Display posts from previous:    
    Reply to topic

    The time now is: Today 02:49

    All times are GMT + 3 Hours

    You cannot post new topics in this forum
    You cannot reply to topics in this forum
    You cannot edit your posts in this forum
    You cannot delete your posts in this forum
    You cannot vote in polls in this forum
    You cannot attach files in this forum
    You cannot download files in this forum