BitTorrentTracker PerecTracker.org
BitTorrentTracker PerecTracker.org
    
Регистрация  ·  Вход
 
 · 
Забыли пароль?

  • Горбун / К бою / Le bossu / On Guard (Филипп де Брока / Philippe de Broca) [1997, Франция, Италия, Германия, драма, приключения, BDRip 720p] 2x MVO (21 Век, ТВЦ) + 3x AVO (Сербин, Гранкин, Володарский) + Sub Eng, Fre + Original Fre

    Ответить на тему
     
    Автор Сообщение

    Light

    Создавать темы 22-Авг-2016 20:16

           

    [Цитировать]

    К бою / Горбун / Le bossu / On Guard
    Слоган: «Si tu ne viens pas à Lagardère, Lagardère ira à toi!»[Страна: Франция, Италия, Германия
    Студия: Alicéléo, Canal+, Cecchi Gori Group Tiger Cinematografica, Centre National de la Cinématographie (CNC), Cofimage 8, Cofimage 9, DA Films, Gemini Film, Prima, TF1 Films Production.
    Жанр: драма, приключения
    Год выпуска: 1997
    Продолжительность: 02:08:16
    Перевод 1: Профессиональный (многоголосый закадровый) - Телеканал "21 Век"
    Перевод 2: Профессиональный (многоголосый закадровый) - Телеканал "ТВЦ"
    Перевод 3: Авторский (одноголосый закадровый) - Юрий Сербин
    Перевод 4: Авторский (одноголосый закадровый) - Евгений Гранкин
    Перевод 5: Авторский (одноголосый закадровый) - Леонид Володарский
    Cубтитры: английские, французские
    Оригинальная аудиодорожка: французский
    Режиссер: Филипп де Брока / Philippe de Broca
    В ролях: Даниель Отой, Фабрис Лукини, Венсан Перес, Мари Жиллен, Янн Коллетт, Жан-Франсуа Стевенен, Дидье Пэн, Чарли Нельсон, Клер Небу, Филипп Нуаре.
    Описание: Шестнадцать лет жизни потратил шевалье Лагардер, чтобы отомстить за смерть своего друга герцога Неверского. Шестнадцать лет, чтобы подобраться к убийце, ставшему финансовым королем Парижа, на чьей руке он своей острой шпагой начертал вечное клеймо позора. Шестнадцать лет, чтобы добиться торжества справедливости, сохранить честь и найти любовь. История отчаянного дуэлянта и пылкого любовника, которую донесла до нас людская молва и придворные сплетни.
    Доп. информация: Исходники Le.bossu.1997.720p.BluRay.DD5.1.x264-CRiSC, Le Bossu (1997) BDRip 1080p_ найдены в сети.--Спасибо за рус. многоголосый(ТВЦ) smit009
    Спасибо за Авторский одноголосый - Юрий Сербин gedemskij
    Спасибо за Авторский одноголосый - Евгений Гранкин serebrin
    Рус. многоголосый(21 Век) и Авторский одноголосый(Леонид Володарский) из сети.
    -
    -

    Награды


    -
    ---Le bossu (1997)_720p BDRip_Sample_.mkv--Синхронизация звук. дорожек Нордер
    За что ему превеликая благодарность
    --Тип релиза: BDRip 720p
    Контейнер: MKV
    Видео: x264, 1280x544, 2.35:1, 24.000 fps, 8 064 Kbps, Progressive, 0.483 Bits/(Pixel*Frame)
    Аудио 1: 48 kHz, AC3 Dolby Digital, 2/0 (L,R) ch, ~ 192 kbps, Русский - MVO Телеканал "21 Век"
    Аудио 2: 48 kHz, AC3 Dolby Digital, 2/0 (L,R) ch, ~ 192 kbps, Русский - MVO Телеканал "ТВЦ"
    Аудио 3: 48 kHz, AC3 Dolby Digital, 2/0 (L,R) ch, ~ 192 kbps, Русский - AVO Юрий Сербин
    Аудио 4: 48 kHz, AC3 Dolby Digital, 2/0 (L,R) ch, ~ 192 kbps, Русский - AVO Евгений Гранкин
    Аудио 5: 48 kHz, AC3 Dolby Digital, 2/0 (L,R) ch, ~ 192 kbps, Русский - AVO Леонид Володарский
    Аудио 6: 48 kHz, DTS, 3/2 (L,C,R,SL,SR)+LFE ch, 24 bits, ~1 509 Kbps, французский
    Формат субтитров: softsub (SRT), softsub (SSA/ASS)

    MediaInfo

    General
    Unique ID : 210387954343329889913277612876847984624 (0x9E473F01C62609A498D7377A23DD2FF0)
    Complete name : I:\111\z_D_Disk\Le bossu (1997)_720p BDRip_.mkv
    Format : Matroska
    Format version : Version 4 / Version 2
    File size : 9.63 GiB
    Duration : 2h 8mn
    Overall bit rate : 10.7 Mbps
    Encoded date : UTC 2016-08-08 20:23:51
    Writing application : mkvmerge v8.6.1 ('Flying') 64bit
    Writing library : libebml v1.3.3 + libmatroska v1.4.4
    Video
    ID : 1
    Format : AVC
    Format/Info : Advanced Video Codec
    Format profile : High@L4.1
    Format settings, CABAC : Yes
    Format settings, ReFrames : 12 frames
    Codec ID : V_MPEG4/ISO/AVC
    Duration : 2h 8mn
    Bit rate : 8 064 Kbps
    Width : 1 280 pixels
    Height : 544 pixels
    Display aspect ratio : 2.35:1
    Frame rate mode : Constant
    Frame rate : 24.000 fps
    Color space : YUV
    Chroma subsampling : 4:2:0
    Bit depth : 8 bits
    Scan type : Progressive
    Bits/(Pixel*Frame) : 0.483
    Stream size : 7.23 GiB (75%)
    Title : Le bossu (1997)_720p BDRip_[Muxed by rjhlb777]
    Writing library : x264 core 148 r2665kMod a01e339
    Encoding settings : cabac=1 / ref=12 / deblock=1:-3:-3 / analyse=0x3:0x133 / me=umh / subme=10 / psy=1 / fade_compensate=0.00 / psy_rd=0.90:0.00 / mixed_ref=1 / me_range=48 / chroma_me=1 / trellis=2 / 8x8dct=1 / cqm=0 / deadzone=21,11 / fast_pskip=0 / chroma_qp_offset=-2 / threads=12 / lookahead_threads=2 / sliced_threads=0 / nr=0 / decimate=0 / interlaced=0 / bluray_compat=0 / constrained_intra=0 / fgo=0 / bframes=7 / b_pyramid=2 / b_adapt=2 / b_bias=0 / direct=3 / weightb=1 / open_gop=0 / weightp=2 / keyint=250 / keyint_min=24 / scenecut=40 / intra_refresh=0 / rc_lookahead=40 / rc=crf / mbtree=0 / crf=17.0000 / qcomp=0.65 / qpmin=0 / qpmax=69 / qpstep=4 / vbv_maxrate=50000 / vbv_bufsize=62500 / crf_max=0.0 / nal_hrd=none / filler=0 / ip_ratio=1.40 / pb_ratio=1.30 / aq=1:0.60
    Language : French
    Default : Yes
    Forced : No
    Color range : Limited
    Color primaries : BT.709
    Transfer characteristics : BT.709
    Matrix coefficients : BT.709
    Audio #1
    ID : 2
    Format : AC-3
    Format/Info : Audio Coding 3
    Mode extension : CM (complete main)
    Format settings, Endianness : Big
    Codec ID : A_AC3
    Duration : 2h 8mn
    Bit rate mode : Constant
    Bit rate : 192 Kbps
    Channel(s) : 2 channels
    Channel positions : Front: L R
    Sampling rate : 48.0 KHz
    Frame rate : 31.250 fps (1536 spf)
    Compression mode : Lossy
    Stream size : 176 MiB (2%)
    Title : MVO (Телеканал "21 Век")
    Language : Russian
    Default : Yes
    Forced : No
    Audio #2
    ID : 3
    Format : AC-3
    Format/Info : Audio Coding 3
    Mode extension : CM (complete main)
    Format settings, Endianness : Big
    Codec ID : A_AC3
    Duration : 2h 8mn
    Bit rate mode : Constant
    Bit rate : 192 Kbps
    Channel(s) : 2 channels
    Channel positions : Front: L R
    Sampling rate : 48.0 KHz
    Frame rate : 31.250 fps (1536 spf)
    Compression mode : Lossy
    Stream size : 176 MiB (2%)
    Title : MVO (Телеканал "ТВЦ")
    Language : Russian
    Default : No
    Forced : No
    Audio #3
    ID : 4
    Format : AC-3
    Format/Info : Audio Coding 3
    Mode extension : CM (complete main)
    Format settings, Endianness : Big
    Codec ID : A_AC3
    Duration : 2h 8mn
    Bit rate mode : Constant
    Bit rate : 192 Kbps
    Channel(s) : 2 channels
    Channel positions : Front: L R
    Sampling rate : 48.0 KHz
    Frame rate : 31.250 fps (1536 spf)
    Compression mode : Lossy
    Stream size : 176 MiB (2%)
    Title : AVO (Юрий Сербин)
    Language : Russian
    Default : No
    Forced : No
    Audio #4
    ID : 5
    Format : AC-3
    Format/Info : Audio Coding 3
    Mode extension : CM (complete main)
    Format settings, Endianness : Big
    Codec ID : A_AC3
    Duration : 2h 8mn
    Bit rate mode : Constant
    Bit rate : 192 Kbps
    Channel(s) : 2 channels
    Channel positions : Front: L R
    Sampling rate : 48.0 KHz
    Frame rate : 31.250 fps (1536 spf)
    Compression mode : Lossy
    Stream size : 176 MiB (2%)
    Title : AVO (Евгений Гранкин)
    Language : Russian
    Default : No
    Forced : No
    Audio #5
    ID : 6
    Format : AC-3
    Format/Info : Audio Coding 3
    Mode extension : CM (complete main)
    Format settings, Endianness : Big
    Codec ID : A_AC3
    Duration : 2h 8mn
    Bit rate mode : Constant
    Bit rate : 192 Kbps
    Channel(s) : 2 channels
    Channel positions : Front: L R
    Sampling rate : 48.0 KHz
    Frame rate : 31.250 fps (1536 spf)
    Compression mode : Lossy
    Stream size : 176 MiB (2%)
    Title : AVO (Леонид Володарский)
    Language : Russian
    Default : No
    Forced : No
    Audio #6
    ID : 7
    Format : DTS
    Format/Info : Digital Theater Systems
    Mode : 16
    Format settings, Endianness : Big
    Codec ID : A_DTS
    Duration : 2h 8mn
    Bit rate mode : Constant
    Bit rate : 1 509 Kbps
    Channel(s) : 6 channels
    Channel positions : Front: L C R, Side: L R, LFE
    Sampling rate : 48.0 KHz
    Frame rate : 93.750 fps (512 spf)
    Bit depth : 24 bits
    Compression mode : Lossy
    Stream size : 1.35 GiB (14%)
    Title : Original
    Language : French
    Default : No
    Forced : No
    Text #1
    ID : 8
    Format : UTF-8
    Codec ID : S_TEXT/UTF8
    Codec ID/Info : UTF-8 Plain Text
    Language : English
    Default : No
    Forced : No
    Text #2
    ID : 9
    Format : ASS
    Codec ID : S_TEXT/ASS
    Codec ID/Info : Advanced Sub Station Alpha
    Compression mode : Lossless
    Language : French
    Default : No
    Forced : No
    Menu
    00:00:00.000 : fr:Chapter 01
    00:09:34.542 : fr:Chapter 02
    00:22:05.375 : fr:Chapter 03
    00:31:12.708 : fr:Chapter 04
    00:41:17.542 : fr:Chapter 05
    00:51:22.958 : fr:Chapter 06
    01:02:05.542 : fr:Chapter 07
    01:14:09.750 : fr:Chapter 08
    01:27:23.708 : fr:Chapter 09
    01:41:55.708 : fr:Chapter 10
    01:54:35.042 : fr:Chapter 11
    02:03:54.083 : fr:Chapter 12

    Скриншоты






    -
    -
    -

    Коврик

    Скачать .torrent

    Скачать торрент-файл бесплатно и на максимальной скорости!

    Как скачивать? · Что такое торрент? · Рейтинг и ограничения

    !ВНИМАНИЕ!
    Сайт не распространяет и не хранит электронные версии произведений, а занимается лишь лишь предоставлением доступа к создаваемому пользователями каталогу ссылок на торрент-файлы, которые содержат только списки хеш-сумм, убедительная просьба с жалобами обращаться напрямую к пользователю. Файлы для обмена на трекере предоставлены пользователями сайта, и администрация не несёт ответственности за их содержание. Просьба не заливать файлы, защищенные авторскими правами, а также файлы нелегального содержания!


    _________________
    [Профиль] [ЛС]
    Показать сообщения:    
    Ответить на тему

    Текущее время: Сегодня, в 00:00

    Часовой пояс: GMT + 2



    Вы не можете начинать темы
    Вы не можете отвечать на сообщения
    Вы не можете редактировать свои сообщения
    Вы не можете удалять свои сообщения
    Вы не можете голосовать в опросах
    Вы не можете прикреплять файлы к сообщениям
    Вы не можете скачивать файлы