BitTorrentTracker PerecTracker.org
BitTorrentTracker PerecTracker.org
    
Регистрация  ·  Вход
 
 · 
Забыли пароль?

  • Мы такие, какие есть / We Are What We Are (Джим Микл / Jim Mickle) [2013, США, ужасы, триллер, драма, HDRip) DVO (DeadSno & den904)

    Ответить на тему
     
    Автор Сообщение

    Light

    Создавать темы 22-Авг-2016 20:16

           

    [Цитировать]

    Мы такие, какие есть / We Are What We Are
    Страна: США
    Жанр: ужасы, триллер, драма
    Год выпуска: 2013
    Продолжительность: 01:45:45
    Перевод: Любительский (двухголосый закадровый) [DeadSno & den904]
    Субтитры: нет
    Оригинальная аудиодорожка: нет
    Режиссер: Джим Микл / Jim Mickle
    В ролях: Кэсси ДеПайва, Лорен Рейто, Джулия Гарнер, Эмбир Чилдерс, Джек Гор, Билл Сейдж, Келли МакГиллис, Уайатт Расселл, Майкл Паркс, Аннемари Лоулесс
    Описание:
    Казалось бы, обычная и доброжелательная семья Паркеров, всегда державшаяся особняком от остальных жителей городка, не могла бы привлечь к себе особого внимания, однако, в тихом омуте черти водятся.
    За закрытыми дверями, вспыльчивый глава семейства Фрэнк правит балом и хранит семейные секреты от посторонних глаз. Секреты, которые заставят содрогнуться от ужаса любого, кто прикоснется к ним..
    Семпл/Все раздачи фильма
    Исходник -- http://perectracker.org/http://perectracker.org/viewtopic.php?t=4582300
    Качество видео: HDRip
    Формат видео: AVI
    Видео: 855 Kbps, 624x256, 23,976 fps, XviD
    Аудио: 128 Kbps, 48 KHz, 2 ch, MP3

    МедиаИнфо

    General
    Complete name : E:\We_Are_2013.avi
    Format : AVI
    Format/Info : Audio Video Interleave
    File size : 746 MiB
    Duration : 1h 45mn
    Overall bit rate : 992 Kbps
    Writing application : VirtualDubMod 1.5.10.3 | www.virtualdub-fr.org || (build 2550/release)
    Writing library : VirtualDubMod build 2550/release
    Video
    ID : 0
    Format : MPEG-4 Visual
    Format profile : Advanced Simple@L5
    Format settings, BVOP : Yes
    Format settings, QPel : No
    Format settings, GMC : No warppoints
    Format settings, Matrix : Default (MPEG)
    Codec ID : XVID
    Codec ID/Hint : XviD
    Duration : 1h 45mn
    Bit rate : 855 Kbps
    Width : 624 pixels
    Height : 256 pixels
    Display aspect ratio : 2.40:1
    Frame rate : 23.976 fps
    Resolution : 8 bits
    Colorimetry : 4:2:0
    Scan type : Progressive
    Bits/(Pixel*Frame) : 0.223
    Stream size : 643 MiB (86%)
    Writing library : XviD 73
    Audio
    ID : 1
    Format : MPEG Audio
    Format version : Version 1
    Format profile : Layer 3
    Mode : Joint stereo
    Codec ID : 55
    Codec ID/Hint : MP3
    Duration : 1h 45mn
    Bit rate mode : Constant
    Bit rate : 128 Kbps
    Channel(s) : 2 channels
    Sampling rate : 48.0 KHz
    Stream size : 96.3 MiB (13%)
    Alignment : Aligned on interleaves
    Interleave, duration : 42 ms (1.00 video frame)
    Interleave, preload duration : 504 ms
    Writing library : LAME3.97

    Скриншоты

    Скачать .torrent

    Скачать торрент-файл бесплатно и на максимальной скорости!

    Как скачивать? · Что такое торрент? · Рейтинг и ограничения

    !ВНИМАНИЕ!
    Сайт не распространяет и не хранит электронные версии произведений, а занимается лишь лишь предоставлением доступа к создаваемому пользователями каталогу ссылок на торрент-файлы, которые содержат только списки хеш-сумм, убедительная просьба с жалобами обращаться напрямую к пользователю. Файлы для обмена на трекере предоставлены пользователями сайта, и администрация не несёт ответственности за их содержание. Просьба не заливать файлы, защищенные авторскими правами, а также файлы нелегального содержания!


    _________________
    [Профиль] [ЛС]
    Показать сообщения:    
    Ответить на тему

    Текущее время: Сегодня, в 22:23

    Часовой пояс: GMT + 2



    Вы не можете начинать темы
    Вы не можете отвечать на сообщения
    Вы не можете редактировать свои сообщения
    Вы не можете удалять свои сообщения
    Вы не можете голосовать в опросах
    Вы не можете прикреплять файлы к сообщениям
    Вы не можете скачивать файлы