Register  ·  Log in
Forgot password?

  • Мы такие, какие есть / We Are What We Are (Джим Микл / Jim Mickle) [2013, США, ужасы, триллер, драма, HDRip) DVO (DeadSno & den904)

    Reply to topic
    Author Message


    Post 22-Aug-2016 21:16



    Мы такие, какие есть / We Are What We Are
    Страна: США
    Жанр: ужасы, триллер, драма
    Год выпуска: 2013
    Продолжительность: 01:45:45
    Перевод: Любительский (двухголосый закадровый) [DeadSno & den904]
    Субтитры: нет
    Оригинальная аудиодорожка: нет
    Режиссер: Джим Микл / Jim Mickle
    В ролях: Кэсси ДеПайва, Лорен Рейто, Джулия Гарнер, Эмбир Чилдерс, Джек Гор, Билл Сейдж, Келли МакГиллис, Уайатт Расселл, Майкл Паркс, Аннемари Лоулесс
    Казалось бы, обычная и доброжелательная семья Паркеров, всегда державшаяся особняком от остальных жителей городка, не могла бы привлечь к себе особого внимания, однако, в тихом омуте черти водятся.
    За закрытыми дверями, вспыльчивый глава семейства Фрэнк правит балом и хранит семейные секреты от посторонних глаз. Секреты, которые заставят содрогнуться от ужаса любого, кто прикоснется к ним..
    Семпл/Все раздачи фильма
    Исходник --
    Качество видео: HDRip
    Формат видео: AVI
    Видео: 855 Kbps, 624x256, 23,976 fps, XviD
    Аудио: 128 Kbps, 48 KHz, 2 ch, MP3


    Complete name : E:\We_Are_2013.avi
    Format : AVI
    Format/Info : Audio Video Interleave
    File size : 746 MiB
    Duration : 1h 45mn
    Overall bit rate : 992 Kbps
    Writing application : VirtualDubMod | || (build 2550/release)
    Writing library : VirtualDubMod build 2550/release
    ID : 0
    Format : MPEG-4 Visual
    Format profile : Advanced Simple@L5
    Format settings, BVOP : Yes
    Format settings, QPel : No
    Format settings, GMC : No warppoints
    Format settings, Matrix : Default (MPEG)
    Codec ID : XVID
    Codec ID/Hint : XviD
    Duration : 1h 45mn
    Bit rate : 855 Kbps
    Width : 624 pixels
    Height : 256 pixels
    Display aspect ratio : 2.40:1
    Frame rate : 23.976 fps
    Resolution : 8 bits
    Colorimetry : 4:2:0
    Scan type : Progressive
    Bits/(Pixel*Frame) : 0.223
    Stream size : 643 MiB (86%)
    Writing library : XviD 73
    ID : 1
    Format : MPEG Audio
    Format version : Version 1
    Format profile : Layer 3
    Mode : Joint stereo
    Codec ID : 55
    Codec ID/Hint : MP3
    Duration : 1h 45mn
    Bit rate mode : Constant
    Bit rate : 128 Kbps
    Channel(s) : 2 channels
    Sampling rate : 48.0 KHz
    Stream size : 96.3 MiB (13%)
    Alignment : Aligned on interleaves
    Interleave, duration : 42 ms (1.00 video frame)
    Interleave, preload duration : 504 ms
    Writing library : LAME3.97


    Download .torrent

    Download free and at maximum speed!

    How to Download? · What is a torrent? · Ratings and Limitations

    The site does not extend and does not store electronic(digital) versions of products, and only gives access to a reference catalogue created by users on torrent-files which contain only lists of the hash-sums, the earnest entreaty, with complaints(abuse) to access directly to the user. Files for an exchange on tracker are given by users of a site, and the administration does not bear the responsibility for their maintenance. The request to not fill in the files protected by copyrights, and also files of the illegal maintenance!

    [Profile] [PM]
    Display posts from previous:    
    Reply to topic

    The time now is: Today 18:56

    All times are GMT + 3 Hours

    You cannot post new topics in this forum
    You cannot reply to topics in this forum
    You cannot edit your posts in this forum
    You cannot delete your posts in this forum
    You cannot vote in polls in this forum
    You cannot attach files in this forum
    You cannot download files in this forum