BitTorrentTracker PerecTracker.org
BitTorrentTracker PerecTracker.org
    
Регистрация  ·  Вход
 
 · 
Забыли пароль?

  • [ATV3] Джульетта / Julieta (Педро Альмодовар / Pedro Almodóvar ) [2016, Испания, Драма, мелодрама, BDRip, HD (1080p)] DUB + Original

    Ответить на тему
     
    Автор Сообщение

    rechyn

    Создавать темы 22-Авг-2016 20:16

           

    [Цитировать]

    Джульетта / Julieta
    -
    7.123 / 10 7.30 / 10
    -Год выпуска: 2016
    Страна: Испания
    Жанр: Драма, мелодрама
    Продолжительность: 01:38:37
    Перевод: Дублированный (iTunes)
    Оригинальная аудиодорожка: Есть
    Cубтитры: Нет
    Режиссёр: Педро Альмодовар
    Сценарий: Педро Альмодовар, Элис Манро
    Продюсер: Агустин Альмодовар, Эстер Гарсия, Диего Пахуэло
    Оператор: Жан-Клод Ларьё
    Композитор: Альберто Иглесиас
    Художник: Антксон Гомес, Карлос Боделон, Федерико Гамберо
    Монтаж: Хосе Сальседо
    В ролях: Адриана Угарте, Росси де Пальма, Эмма Суарес, Мишель Хеннер, Инма Куэста, Даниэль Грао, Дарио Грандинетти, Натали Поса, Пилар Кастро, Агустин Альмодовар
    Бюджет: €1 350 000
    Сборы в России: $187 929
    Мировая премьера: 8 апреля 2016
    Премьера (РФ): 4 августа 2016, «Capella Film»
    Описание: Дочь Джульетты таинственным образом исчезает. В попытке отыскать ее следы она возвращается в Мадрид и вспоминает свою бурную юность, любовь и страшную трагедию, которая отдалила ее от дочери. Призрак прошлого терзает ее в настоящем.-Качество исходника: Blu-Ray (BlueBird)
    Качество: BDRip
    Тип: HD (1080p)
    Контейнер: M4V
    Видео: H.264, 1920x1040, 1.85:1, 8 000 Kbps, 23.976 fps
    Аудио 1: Русский/Дублированный (iTunes), AAC / 2.0 / 160 Kbps / 48.0 KHz
    Аудио 2: Испанский/Оригинальная дорожка , AAC / 2.0 / 160 Kbps / 48.0 KHz
    Аудио 3: Русский/Дублированный (iTunes), AC-3 / 5.1 / 384 Kbps / 48.0 KHz
    Аудио 4: Испанский/Оригинальная дорожка , AC-3 / 5.1 / 640 Kbps / 48.0 KHz
    -

    iTunes Meta Tags

    Sort Name: Джульетта
    XID: Apple:vendor_id:2016-882569
    contentID: 1138312177
    Copyright: © 2016 Capella Film
    Screenwriters: Педро Альмодовар, Элис Манро
    Producers: Агустин Альмодовар, Эстер Гарсия, Диего Пахуэло
    Director: Педро Альмодовар
    Cast: Адриана Угарте, Росси де Пальма, Эмма Суарес, Мишель Хеннер, Инма Куэста, Даниэль Грао, Дарио Грандинетти, Натали Поса, Пилар Кастро, Хорхе Побес
    Studio: Canal+ France, El Deseo S.A., TVE
    Rating: 135
    Long Description: Дочь Джульетты таинственным образом исчезает. В попытке отыскать ее следы она возвращается в Мадрид и вспоминает свою бурную юность, любовь и страшную трагедию, которая отдалила ее от дочери. Призрак прошлого терзает ее в настоящем.
    Description: Дочь Джульетты таинственным образом исчезает. В попытке отыскать ее следы она возвращается в Мадрид и вспоминает свою бурную юность, любовь и страшную трагедию, которая отдалила ее от дочери. Призрак прошлого терзает ее в настоящем.
    Release Date: 2016-04-08T08:00:00Z
    Genre: Drama
    Artist: Педро Альмодовар
    Name: Джульетта

    MediaInfo

    General
    Complete name : /Users/imac/HandBrake/Julieta (1080p HD).m4v
    Format : MPEG-4
    Codec ID : M4V
    File size : 6.43 GiB
    Duration : 1h 38mn
    Overall bit rate mode : Variable
    Overall bit rate : 9 340 Kbps
    Movie name : Джульетта
    Performer : Педро Альмодовар
    Director : Педро Альмодовар
    Actor : Адриана Угарте / Росси де Пальма / Эмма Суарес / Мишель Хеннер / Инма Куэста / Даниэль Грао / Дарио Грандинетти / Натали Поса / Пилар Кастро / Хорхе Побес
    Screenplay by : Педро Альмодовар / Элис Манро
    Producer : Агустин Альмодовар / Эстер Гарсия / Диего Пахуэло
    Production studio : Canal+ France, El Deseo S.A., TVE
    Genre : Drama
    ContentType : Short Film
    Description : Дочь Джульетты таинственным образом исчезает. В попытке отыскать ее следы она возвращается в Мадрид и вспоминает свою бурную юность, любовь и страшную трагедию, которая отдалила ее от дочери. Призрак прошлого терзает ее в настоящем.
    Recorded date : UTC 2016-04-08 08:00:00
    Encoded date : UTC 2016-08-22 10:46:29
    Tagged date : UTC 2016-08-22 10:47:38
    Copyright : © 2016 Capella Film
    Cover : Yes
    Rating : None
    Title/Sort : Джульетта
    LongDescription : Дочь Джульетты таинственным образом исчезает. В попытке отыскать ее следы она возвращается в Мадрид и вспоминает свою бурную юность, любовь и страшную трагедию, которая отдалила ее от дочери. Призрак прошлого терзает ее в настоящем.
    AppleStoreCatalogID : 1138312177
    Vendor : Apple:vendor_id:2016-882569
    ContentRating : ru-movie|16+|375|
    Video #1
    ID : 1
    Format : AVC
    Format/Info : Advanced Video Codec
    Format profile : High@L4
    Format settings, CABAC : Yes
    Format settings, ReFrames : 4 frames
    Codec ID : avc1
    Codec ID/Info : Advanced Video Coding
    Duration : 1h 38mn
    Source duration : 1h 38mn
    Bit rate : 8 000 Kbps
    Width : 1 920 pixels
    Height : 1 040 pixels
    Display aspect ratio : 1.85:1
    Frame rate mode : Variable
    Frame rate : 23.976 fps
    Minimum frame rate : 23.974 fps
    Maximum frame rate : 23.981 fps
    Color space : YUV
    Chroma subsampling : 4:2:0
    Bit depth : 8 bits
    Scan type : Progressive
    Bits/(Pixel*Frame) : 0.167
    Stream size : 5.50 GiB (86%)
    Source stream size : 5.50 GiB (86%)
    Title : Main Program
    Writing library : x264 core 142 r2479 dd79a61
    Encoding settings : cabac=1 / ref=4 / deblock=1:-2:-2 / analyse=0x3:0x133 / me=umh / subme=10 / psy=1 / psy_rd=1.00:0.15 / mixed_ref=1 / me_range=32 / chroma_me=1 / trellis=2 / 8x8dct=1 / cqm=0 / deadzone=21,11 / fast_pskip=0 / chroma_qp_offset=-3 / threads=36 / lookahead_threads=8 / sliced_threads=0 / nr=0 / decimate=0 / interlaced=0 / bluray_compat=0 / constrained_intra=0 / bframes=16 / b_pyramid=2 / b_adapt=2 / b_bias=0 / direct=3 / weightb=1 / open_gop=0 / weightp=2 / keyint=240 / keyint_min=24 / scenecut=40 / intra_refresh=0 / rc_lookahead=60 / rc=2pass / mbtree=1 / bitrate=8000 / ratetol=1.0 / qcomp=0.70 / qpmin=0 / qpmax=69 / qpstep=4 / cplxblur=20.0 / qblur=0.5 / vbv_maxrate=25000 / vbv_bufsize=25000 / nal_hrd=none / filler=0 / ip_ratio=1.40 / aq=1:1.00
    Language : Spanish
    Encoded date : UTC 2016-08-22 10:46:30
    Tagged date : UTC 2016-08-22 10:46:42
    Color range : Limited
    Color primaries : BT.709
    Transfer characteristics : BT.709
    Matrix coefficients : BT.709
    Video #2
    ID : 7
    Format : JPEG
    Codec ID : jpeg
    Duration : 1h 38mn
    Bit rate mode : Variable
    Bit rate : 391 bps
    Width : 640 pixels
    Height : 346 pixels
    Display aspect ratio : 1.85:1
    Frame rate mode : Constant
    Frame rate : 0.001 fps
    Color space : YUV
    Chroma subsampling : 4:2:0
    Bit depth : 8 bits
    Compression mode : Lossy
    Bits/(Pixel*Frame) : 1.766
    Stream size : 381 KiB (0%)
    Title : Chapter Images
    Language : Spanish
    Encoded date : UTC 2016-08-22 10:46:47
    Tagged date : UTC 2016-08-22 10:46:47
    Audio #1
    ID : 2
    Format : AAC
    Format/Info : Advanced Audio Codec
    Format profile : LC
    Codec ID : 40
    Duration : 1h 38mn
    Bit rate mode : Variable
    Bit rate : 158 Kbps
    Maximum bit rate : 221 Kbps
    Channel(s) : 2 channels
    Channel positions : Front: L R
    Sampling rate : 48.0 KHz
    Compression mode : Lossy
    Stream size : 111 MiB (2%)
    Title : Russian Stereo
    Language : Russian
    Encoded date : UTC 2016-08-22 10:46:30
    Tagged date : UTC 2016-08-22 10:46:43
    Audio #2
    ID : 3
    Format : AAC
    Format/Info : Advanced Audio Codec
    Format profile : LC
    Codec ID : 40
    Duration : 1h 38mn
    Bit rate mode : Variable
    Bit rate : 157 Kbps
    Maximum bit rate : 245 Kbps
    Channel(s) : 2 channels
    Channel positions : Front: L R
    Sampling rate : 48.0 KHz
    Compression mode : Lossy
    Stream size : 111 MiB (2%)
    Title : Spanish Stereo
    Language : Spanish
    Encoded date : UTC 2016-08-22 10:46:30
    Tagged date : UTC 2016-08-22 10:46:43
    Audio #3
    ID : 4
    Format : AC-3
    Format/Info : Audio Coding 3
    Mode extension : CM (complete main)
    Format settings, Endianness : Big
    Codec ID : ac-3
    Duration : 1h 38mn
    Bit rate mode : Constant
    Bit rate : 384 Kbps
    Channel(s) : 6 channels
    Channel positions : Front: L C R, Side: L R, LFE
    Sampling rate : 48.0 KHz
    Bit depth : 16 bits
    Compression mode : Lossy
    Stream size : 271 MiB (4%)
    Title : Russian DD 5.1
    Language : Russian
    Encoded date : UTC 2016-08-22 10:46:30
    Tagged date : UTC 2016-08-22 10:46:35
    Audio #4
    ID : 5
    Format : AC-3
    Format/Info : Audio Coding 3
    Mode extension : CM (complete main)
    Format settings, Endianness : Big
    Codec ID : ac-3
    Duration : 1h 38mn
    Bit rate mode : Constant
    Bit rate : 640 Kbps
    Channel(s) : 6 channels
    Channel positions : Front: L C R, Side: L R, LFE
    Sampling rate : 48.0 KHz
    Bit depth : 16 bits
    Compression mode : Lossy
    Stream size : 451 MiB (7%)
    Title : Spanish DD 5.1
    Language : Spanish
    Encoded date : UTC 2016-08-22 10:46:30
    Tagged date : UTC 2016-08-22 10:46:35
    Menu #1
    00:00:00.000 : Chapter 1
    00:11:08.459 : Chapter 2
    00:25:18.559 : Chapter 3
    00:38:46.157 : Chapter 4
    00:50:14.178 : Chapter 5
    01:02:45.220 : Chapter 6
    01:15:14.468 : Chapter 7
    01:28:20.629 : Chapter 8
    Menu #2
    ID : 6
    Codec ID : text
    Duration : 1h 38mn
    Language : Spanish
    Encoded date : UTC 2016-08-22 10:46:43
    Tagged date : UTC 2016-08-22 10:46:43
    Bit rate mode : CBR
    00:00:00.000 : Chapter 1
    00:11:08.459 : Chapter 2
    00:25:18.559 : Chapter 3
    00:38:46.157 : Chapter 4
    00:50:14.178 : Chapter 5
    01:02:45.220 : Chapter 6
    01:15:14.468 : Chapter 7
    01:28:20.629 : Chapter 8

    x264 лог

    x264 [info]: frame I:827   Avg QP:16.65  size:232312
    x264 [info]: frame P:31121 Avg QP:19.69  size: 85240
    x264 [info]: frame B:109756 Avg QP:20.64  size: 27889
    x264 [info]: consecutive B-frames:  3.2%  2.5%  9.8%  8.0%  8.3% 64.5%  1.4%  0.1%  0.3%  0.1%  0.1%  0.2%  0.1%  0.1%  0.3%  0.3%  0.7%
    x264 [info]: mb I  I16..4: 11.9% 72.4% 15.7%
    x264 [info]: mb P  I16..4:  1.8% 11.7%  1.2%  P16..4: 46.1% 18.9% 12.0%  0.3%  0.1%    skip: 8.0%
    x264 [info]: mb B  I16..4:  0.1%  0.9%  0.1%  B16..8: 47.6%  9.6%  1.9%  direct: 5.2%  skip:34.5%  L0:43.7% L1:45.9% BI:10.4%
    x264 [info]: 8x8 transform intra:79.4% inter:61.2%
    x264 [info]: direct mvs  spatial:99.4% temporal:0.6%
    x264 [info]: coded y,uvDC,uvAC intra: 87.6% 83.2% 55.0% inter: 26.8% 29.4% 12.1%
    x264 [info]: i16 v,h,dc,p: 33% 11% 14% 42%
    x264 [info]: i8 v,h,dc,ddl,ddr,vr,hd,vl,hu: 11%  8%  7% 10% 14% 14% 13% 12% 12%
    x264 [info]: i4 v,h,dc,ddl,ddr,vr,hd,vl,hu: 12%  9%  4%  9% 14% 15% 13% 12% 12%
    x264 [info]: i8c dc,h,v,p: 43% 20% 21% 17%
    x264 [info]: Weighted P-Frames: Y:2.0% UV:1.1%
    x264 [info]: ref P L0: 52.2% 12.1% 24.7%  9.4%  1.5%  0.0%
    x264 [info]: ref B L0: 86.6% 10.7%  2.7%
    x264 [info]: ref B L1: 94.4%  5.6%
    x264 [info]: kb/s:7994.12

    Скриншоты

    -

    Релиз подготовлен для просмотра на Apple TV, iPad, iPhone, iPod Touch.
    Для просмотра данного релиза на компьютере с ОС Windows рекомендуется использовать VLC media player
    Скачать .torrent

    Скачать торрент-файл бесплатно и на максимальной скорости!

    Как скачивать? · Что такое торрент? · Рейтинг и ограничения

    !ВНИМАНИЕ!
    Сайт не распространяет и не хранит электронные версии произведений, а занимается лишь лишь предоставлением доступа к создаваемому пользователями каталогу ссылок на торрент-файлы, которые содержат только списки хеш-сумм, убедительная просьба с жалобами обращаться напрямую к пользователю. Файлы для обмена на трекере предоставлены пользователями сайта, и администрация не несёт ответственности за их содержание. Просьба не заливать файлы, защищенные авторскими правами, а также файлы нелегального содержания!


    _________________
    [Профиль] [ЛС]
    Показать сообщения:    
    Ответить на тему

    Текущее время: Сегодня, в 18:29

    Часовой пояс: GMT + 2



    Вы не можете начинать темы
    Вы не можете отвечать на сообщения
    Вы не можете редактировать свои сообщения
    Вы не можете удалять свои сообщения
    Вы не можете голосовать в опросах
    Вы не можете прикреплять файлы к сообщениям
    Вы не можете скачивать файлы