BitTorrentTracker PerecTracker.org
BitTorrentTracker PerecTracker.org
    
Регистрация  ·  Вход
 
 · 
Забыли пароль?

  • Тарзан. Легенда / The Legend of Tarzan (Дэвид Йэтс / David Yates) [2016, США, Боевик, приключения, WEBRip] MVO (Paradox" & Omskbird records)

    Ответить на тему
     
    Автор Сообщение

    rechyn

    Создавать темы 22-Авг-2016 20:16

           

    [Цитировать]

    Тарзан. Легенда / The Legend of Tarzan
    Страна: США
    Жанр: Боевик, приключения
    Год выпуска: 2016
    Продолжительность: 01:49:35
    Перевод: Любительский (многоголосый закадровый) - Paradox" & Omskbird records
    Cубтитры: Корейские (неотключаемые)
    Оригинальная аудиодорожка: нет
    Режиссер: Дэвид Йэтс / David Yates
    В ролях: Александр Скарсгард, Рори Дж. Сапер, Кристоф Вальц, Сэмюэл Л. Джексон, Марго Робби, Ози Икхайл, Менс-Сана Тамакло, Энтони Ачеампонг
    Описание: Все истории о Тарзане рассказывают нам одинаковый сюжет о взрослении в джунглях маленького мальчика – выросший в окружении горилл, он постепенно становится могучим воином. Но что произошло потом, когда Джон Клейтон покинул тропический лес и вернулся в Лондон? Под именем лорда Грейстока наш герой мирно живет в британской столице, войдя в высшее общество Англии. Но внезапные обстоятельства заставляют Джона вновь отправиться на Черный континент - пройдя через смертельно опасные приключения, ему предстоит разоблачить коварные планы связанных с продажными политиками злоумышленников.
    Сэмпл: http://multi-up.com/1114583
    Качество видео: WEBRip
    Исходник: [Tarzan.2016.P.WEBRip.1080p_Paradox&Omskbird]
    Формат видео: AVI
    Видео: 720x304 (2.37:1), 24.000 fps, XviD build 65 ~1705 kbps avg, 0.32 bit/pixel
    Аудио RUS: 48 kHz, AC3 Dolby Digital, 2/0 (L,R) ch, ~192 kbps

    Rip by Ториял для

    MediaInfo

    Format : AVI
    Format/Info : Audio Video Interleave
    File size : 1.46 GiB
    Duration : 1h 49mn
    Overall bit rate : 1 907 Kbps
    Writing application : VirtualDubMod 1.5.10.3 | www.virtualdub-fr.org || (build 2550/release)
    Writing library : VirtualDubMod build 2550/release
    Video
    ID : 0
    Format : MPEG-4 Visual
    Format profile : Advanced Simple@L5
    Format settings, BVOP : 1
    Format settings, QPel : No
    Format settings, GMC : No warppoints
    Format settings, Matrix : Custom
    Codec ID : XVID
    Codec ID/Hint : XviD
    Duration : 1h 49mn
    Bit rate : 1 705 Kbps
    Width : 720 pixels
    Height : 304 pixels
    Display aspect ratio : 2.35:1
    Frame rate : 24.000 fps
    Color space : YUV
    Chroma subsampling : 4:2:0
    Bit depth : 8 bits
    Scan type : Progressive
    Compression mode : Lossy
    Bits/(Pixel*Frame) : 0.325
    Stream size : 1.31 GiB (89%)
    Writing library : XviD 65
    Audio
    ID : 1
    Format : AC-3
    Format/Info : Audio Coding 3
    Mode extension : CM (complete main)
    Format settings, Endianness : Big
    Codec ID : 2000
    Duration : 1h 49mn
    Bit rate mode : Constant
    Bit rate : 192 Kbps
    Channel(s) : 2 channels
    Channel positions : Front: L R
    Sampling rate : 48.0 KHz
    Frame rate : 31.250 fps (1536 spf)
    Compression mode : Lossy
    Stream size : 150 MiB (10%)
    Alignment : Split accross interleaves
    Interleave, duration : 42 ms (1.00 video frame)
    Interleave, preload duratio : 500 ms

    Скриншоты

    Скачать .torrent

    Скачать торрент-файл бесплатно и на максимальной скорости!

    Как скачивать? · Что такое торрент? · Рейтинг и ограничения

    !ВНИМАНИЕ!
    Сайт не распространяет и не хранит электронные версии произведений, а занимается лишь лишь предоставлением доступа к создаваемому пользователями каталогу ссылок на торрент-файлы, которые содержат только списки хеш-сумм, убедительная просьба с жалобами обращаться напрямую к пользователю. Файлы для обмена на трекере предоставлены пользователями сайта, и администрация не несёт ответственности за их содержание. Просьба не заливать файлы, защищенные авторскими правами, а также файлы нелегального содержания!


    _________________
    [Профиль] [ЛС]
    Показать сообщения:    
    Ответить на тему

    Текущее время: Сегодня, в 19:39

    Часовой пояс: GMT + 2



    Вы не можете начинать темы
    Вы не можете отвечать на сообщения
    Вы не можете редактировать свои сообщения
    Вы не можете удалять свои сообщения
    Вы не можете голосовать в опросах
    Вы не можете прикреплять файлы к сообщениям
    Вы не можете скачивать файлы