BitTorrentTracker PerecTracker.org
BitTorrentTracker PerecTracker.org
    
Регистрация  ·  Вход
 
 · 
Забыли пароль?

  • The Brit Awards 2014 [2014, Pop, Rock, R&B, HDTVRip 720p]

    Ответить на тему
     
    Автор Сообщение

    Columb

    Создавать темы 18-Мар-2014 21:09

           

    [Цитировать]

    The Brit Awards 2014

    Жанр: Pop, Rock, R&B
    Продолжительность: 01:42:57
    Год выпуска: 2014-Описание: 19 февраля на лондонской арене O2 состоялась 34-я церемония вручения музыкальных наград BRIT Awards 2014.
    Лучший британский исполнитель – Дэвид Боуи, зарубежный – Бруно Марс; лучшая британская группа – Arctic Monkeys, зарубежная – Daft Punk; лучшая зарубежная певица – Лорд, лучшее видео – One Direction, альбом года – Arctic Monkeys.
    Треклист:
    01. Arctic Monkeys - R U Mine?
    02. Katy Perry - Dark Horse
    03. Bruno Mars - Treasure
    04. Beyonce - XO
    05. Disclosure, Lorde & Aluna Francis- Royals / White Noise
    06. Ellie Goulding - I Need Your Love / Burn
    07. Bastille & Rudimental - Pompeii / Waiting All Night [feat. Ella Eyre]
    08. Pharrell Williams & Nile Rodgers - Get Lucky / Good Times / Happy
    -Качество: HDTVRip 720p
    Контейнер: MKV
    Видео кодек: H.264
    Аудио кодек: AC3
    Видео: 1280x720 (16:9), 25 fps, 6449 Kbps
    Аудио: AC3 256 Kbps, 48 kHz, 2 ch

    Отчёт MediaInfo / x264

    avs [info]: 1280x720p 1:1 @ 25/1 fps (cfr)x264 [info]: using SAR=1/1x264 [info]: using cpu capabilities: MMX2 SSE2Fast SSSE3 SSE4.2 AVX AVX2 FMA3 LZCNT BMI1 BMI2x264 [info]: profile High, level 4.1
    x264 [info]: frame I:1233 Avg QP:17.05 size:103327x264 [info]: frame P:42850 Avg QP:18.43 size: 56583x264 [info]: frame B:110333 Avg QP:20.73 size: 22939x264 [info]: consecutive B-frames: 3.2% 4.5% 7.9% 73.4% 7.3% 3.4% 0.3%x264 [info]: mb I I16..4: 11.6% 68.9% 19.4%x264 [info]: mb P I16..4: 6.1% 25.2% 4.5% P16..4: 32.9% 18.8% 9.9% 0.5% 0.1% skip: 2.0%x264 [info]: mb B I16..4: 1.0% 3.1% 0.6% B16..8: 36.7% 12.4% 3.5% direct:13.0% skip:29.7% L0:38.9% L1:42.0% BI:19.2%x264 [info]: 8x8 transform intra:69.4% inter:57.9%x264 [info]: direct mvs spatial:100.0% temporal:0.0%x264 [info]: coded y,uvDC,uvAC intra: 72.8% 88.5% 70.4% inter: 31.7% 43.0% 11.8%x264 [info]: i16 v,h,dc,p: 47% 15% 7% 31%x264 [info]: i8 v,h,dc,ddl,ddr,vr,hd,vl,hu: 16% 9% 9% 8% 11% 13% 10% 12% 11%x264 [info]: i4 v,h,dc,ddl,ddr,vr,hd,vl,hu: 17% 11% 5% 9% 13% 13% 11% 11% 11%x264 [info]: i8c dc,h,v,p: 36% 20% 25% 19%x264 [info]: Weighted P-Frames: Y:18.5% UV:14.6%x264 [info]: ref P L0: 53.3% 11.0% 15.0% 6.4% 3.9% 3.7% 2.6% 2.1% 1.7% 0.3% 0.1%x264 [info]: ref B L0: 86.7% 7.3% 2.5% 1.2% 0.9% 0.7% 0.5% 0.2%x264 [info]: ref B L1: 97.1% 2.9%x264 [info]: kb/s:6583.39encoded 154416 frames, 8.97 fps, 6583.39 kb/s
    General
    Unique ID                                : 235719919068398932002551831731751511029 (0xB156014BC23C56528FC7041EC61E63F5)
    Complete name                            : D:\The BRIT Awards 2014\The.BRIT.Awards.2014.720p.HDTVRip.H.264.DD2.0.mkv
    Format                                   : Matroska
    Format version                           : Version 2
    File size                                : 4.92 GiB
    Duration                                 : 1h 42mn
    Overall bit rate                         : 6 841 Kbps
    Encoded date                             : UTC 2014-03-17 16:10:53
    Writing application                      : mkvmerge v6.1.0 ('Old Devil') built on Mar  4 2013 09:10:42
    Writing library                          : libebml v1.3.0 + libmatroska v1.4.0
    Video
    ID                                       : 1
    Format                                   : AVC
    Format/Info                              : Advanced Video Codec
    Format profile                           : High@L4.1
    Format settings, CABAC                   : Yes
    Format settings, ReFrames                : 9 frames
    Codec ID                                 : V_MPEG4/ISO/AVC
    Duration                                 : 1h 42mn
    Bit rate                                 : 6 449 Kbps
    Width                                    : 1 280 pixels
    Height                                   : 720 pixels
    Display aspect ratio                     : 16:9
    Frame rate mode                          : Constant
    Frame rate                               : 25.000 fps
    Color space                              : YUV
    Chroma subsampling                       : 4:2:0
    Bit depth                                : 8 bits
    Scan type                                : Progressive
    Bits/(Pixel*Frame)                       : 0.280
    Stream size                              : 4.64 GiB (94%)
    Writing library                          : x264 core 130 r2273 b3065e6
    Encoding settings                        : cabac=1 / ref=9 / deblock=1:-3:-3 / analyse=0x3:0x133 / me=umh / subme=9 / psy=1 / psy_rd=1.00:0.10 / mixed_ref=1 / me_range=24 / chroma_me=1 / trellis=2 / 8x8dct=1 / cqm=0 / deadzone=21,11 / fast_pskip=0 / chroma_qp_offset=-3 / threads=12 / lookahead_threads=1 / sliced_threads=0 / nr=0 / decimate=1 / interlaced=0 / bluray_compat=0 / constrained_intra=0 / bframes=6 / b_pyramid=2 / b_adapt=2 / b_bias=0 / direct=3 / weightb=1 / open_gop=0 / weightp=2 / keyint=250 / keyint_min=25 / scenecut=40 / intra_refresh=0 / rc=crf / mbtree=0 / crf=19.0 / qcomp=0.60 / qpmin=0 / qpmax=69 / qpstep=4 / ip_ratio=1.40 / pb_ratio=1.30 / aq=1:1.00
    Default                                  : Yes
    Forced                                   : No
    Color primaries                          : BT.709
    Transfer characteristics                 : BT.709
    Matrix coefficients                      : BT.709
    Audio
    ID                                       : 2
    Format                                   : AC-3
    Format/Info                              : Audio Coding 3
    Mode extension                           : CM (complete main)
    Format settings, Endianness              : Big
    Codec ID                                 : A_AC3
    Duration                                 : 1h 42mn
    Bit rate mode                            : Constant
    Bit rate                                 : 256 Kbps
    Channel(s)                               : 2 channels
    Channel positions                        : Front: L R
    Sampling rate                            : 48.0 KHz
    Bit depth                                : 16 bits
    Compression mode                         : Lossy
    Stream size                              : 188 MiB (4%)
    Default                                  : Yes
    Forced                                   : No

    Скриншоты

    Скачать .torrent

    Скачать торрент-файл бесплатно и на максимальной скорости!

    Как скачивать? · Что такое торрент? · Рейтинг и ограничения

    !ВНИМАНИЕ!
    Сайт не распространяет и не хранит электронные версии произведений, а занимается лишь лишь предоставлением доступа к создаваемому пользователями каталогу ссылок на торрент-файлы, которые содержат только списки хеш-сумм, убедительная просьба с жалобами обращаться напрямую к пользователю. Файлы для обмена на трекере предоставлены пользователями сайта, и администрация не несёт ответственности за их содержание. Просьба не заливать файлы, защищенные авторскими правами, а также файлы нелегального содержания!

    [Профиль] [ЛС]
    Показать сообщения:    
    Ответить на тему

    Текущее время: Сегодня, в 20:13

    Часовой пояс: GMT + 2



    Вы не можете начинать темы
    Вы не можете отвечать на сообщения
    Вы не можете редактировать свои сообщения
    Вы не можете удалять свои сообщения
    Вы не можете голосовать в опросах
    Вы не можете прикреплять файлы к сообщениям
    Вы не можете скачивать файлы