Register  ·  Log in
Forgot password?

  • Образцовый самец 2 / Zoolander 2 (Бен Стиллер / Ben Stiller) [2016, США, комедия, BDRip] Dub

    Reply to topic
    Author Message


    Post 22-Aug-2016 17:04



    Образцовый самец 2 / Zoolander 2
    Жанр: комедия
    Год выпуска: 2016
    Продолжительность: 01:41:47
    Перевод: Профессиональный (дублированный) Blu-ray CEE
    Cубтитры: нет
    Оригинальная аудиодорожка: нет-Режиссер: Бен Стиллер / Ben Stiller-В ролях: Бен Стиллер (Derek), Оуэн Уилсон (Hansel), Пенелопа Крус (Valentina Valencia), Кристен Уиг (Alexanya Atoz), Уилл Феррелл (Jacobim Mugatu), Бенедикт Камбербэтч (All), Джастин Бибер (Justin Bieber), Джон Дэйли (Agent Filippo), Кэти Курик (Katie Couric), Эми Стиллер (Mom Tourist), Шарлотта Таунсенд (Girl Tourist), Кристин Тейлор (Matilda)-Описание: Триумфальное возвращение на подиумы когда-то топовых, а ныне слегка потрепанных мужчин-моделей Дерека Зуландера и Ханселя в комедии о мире, где для обретения всеобщей популярности достаточно одного селфи.-Качество видео: BDRip
    Формат видео: AVI
    Видео: 688x288 (2.39:1), 23.976 fps, XviD build 73 ~890 kbps avg, 0.19 bit/pixel
    Аудио: 48 kHz, MPEG Layer 3, 2 ch, ~128.00 kbps avg--


    Format                      : AVI
    Format/Info                 : Audio Video Interleave
    File size                   : 749 MiB
    Duration                    : 1 h 41 min
    Overall bit rate            : 1 028 kb/s
    Writing application         : VirtualDubMod | || (build 2550/release)
    Writing library             : VirtualDubMod build 2550/release
    ID                          : 0
    Format                      : MPEG-4 Visual
    Format profile              : Advanced Simple@L5
    Format settings, BVOP       : 1
    Format settings, QPel       : No
    Format settings, GMC        : No warppoints
    Format settings, Matrix     : Custom
    Codec ID                    : XVID
    Codec ID/Hint               : XviD
    Duration                    : 1 h 41 min
    Bit rate                    : 891 kb/s
    Width                       : 688 pixels
    Height                      : 288 pixels
    Display aspect ratio        : 2.40:1
    Frame rate                  : 23.976 (23976/1000) FPS
    Color space                 : YUV
    Chroma subsampling          : 4:2:0
    Bit depth                   : 8 bits
    Scan type                   : Progressive
    Compression mode            : Lossy
    Bits/(Pixel*Frame)          : 0.188
    Stream size                 : 649 MiB (87%)
    Writing library             : XviD 73
    ID                          : 1
    Format                      : MPEG Audio
    Format version              : Version 1
    Format profile              : Layer 3
    Codec ID                    : 55
    Codec ID/Hint               : MP3
    Duration                    : 1 h 41 min
    Bit rate mode               : Constant
    Bit rate                    : 128 kb/s
    Channel(s)                  : 2 channels
    Sampling rate               : 48.0 kHz
    Compression mode            : Lossy
    Stream size                 : 93.2 MiB (12%)
    Alignment                   : Aligned on interleaves
    Interleave, duration        : 42  ms (1.00 video frame)
    Interleave, preload duratio : 504  ms
    Writing library             : LAME3.99r
    Encoding settings           : -m s -V 4 -q 2 -lowpass 17 -b 128


    Download .torrent

    Download free and at maximum speed!

    How to Download? · What is a torrent? · Ratings and Limitations

    The site does not extend and does not store electronic(digital) versions of products, and only gives access to a reference catalogue created by users on torrent-files which contain only lists of the hash-sums, the earnest entreaty, with complaints(abuse) to access directly to the user. Files for an exchange on tracker are given by users of a site, and the administration does not bear the responsibility for their maintenance. The request to not fill in the files protected by copyrights, and also files of the illegal maintenance!

    [Profile] [PM]
    Display posts from previous:    
    Reply to topic

    The time now is: Today 15:20

    All times are GMT + 3 Hours

    You cannot post new topics in this forum
    You cannot reply to topics in this forum
    You cannot edit your posts in this forum
    You cannot delete your posts in this forum
    You cannot vote in polls in this forum
    You cannot attach files in this forum
    You cannot download files in this forum