BitTorrentTracker PerecTracker.org
BitTorrentTracker PerecTracker.org
    
Регистрация  ·  Вход
 
 · 
Забыли пароль?

  • Зузу / Zouzou (Бландин Ленуар / Blandine Lenoir) [2014, Франция, комедия, DVB] Original (Fre) + Sub (Rus, Eng, Fre, Deu)

    Ответить на тему
     
    Автор Сообщение

    Light

    Создавать темы 22-Авг-2016 16:04

           

    [Цитировать]

    Зузу
    Zouzou-Страна: Франция
    Жанр: комедия
    Год выпуска: 2014
    Продолжительность: 01:18:17
    Перевод: Субтитры (перевод К.Семенюк, Éclair Group)
    Cубтитры: русские, английские, французские, немецкие, нидерландские
    Оригинальная аудиодорожка: французский
    Режиссер: Бландин Ленуар / Blandine LenoirВ ролях: Жанна Феррон / Jeanne Ferron (Solange), Флоранс Мюллер / Florence Muller (Agathe), Лор Калами / Laure Calamy (Lucie), Сара Граппен / Sarah Grappin (Marie), Элиза Лифшиц / Elisa Lifshitz (Lisette), Анук Дельбар / Anouk Delbart (Zouzou), Оливье Брош / Olivier Broche (Jean-Claude Rabette), Антуан Бешон / Antoine Bechon (Théo), Бландин Ленуар / Blandine Lenoir (La mère de Lisette)
    Описание: Соланж сообщает своим троим дочерям, приехавшим погостить к ней на выходные, что она влюблена... Дочери пытаются представить занимающихся сексом 60-летних людей. Тут еще 14-летняя дочь Агаты была поймана за первым занятием сексом. Так начинаются разговоры о сексе и сексуальном воспитании. Но говорить о сексе в семейном кругу не так-то просто...
    Доп. информация: Hot Bird (13.0°E) TV5MONDE Europe DVB-S
    Награды: приз зрительских симпатий Festival Renc'art de Montreuil 2014; приз зрительских симпатий Cinéssonne - Festival du cinéma européen en Essonne 2014.

    Качество видео: DVB
    Формат видео: MKV
    Видео: MPEG Video 2, 720x576@1024x576 (16:9), 25 fps, ~2892 kbps avg, 0.279 bit/pixel
    Аудио: MPEG Audio 2, 2 ch, 48 kHz, 192 kbps - французский
    Формат субтитров: softsub (SRT)

    Пример субтитров

    100:01:05,536 --> 00:01:08,536Ты, наверное, редко купаешься?
    200:01:12,179 --> 00:01:15,179ЗУЗУ
    300:01:15,584 --> 00:01:18,584Девочки мои!Наяды вы мои!
    400:01:20,022 --> 00:01:22,217Мама, обнять тебя?
    500:01:22,217 --> 00:01:25,217-Лучше не надо.-Дай я тебя обниму.
    600:01:25,657 --> 00:01:27,857Потом обнимешь, дорогая.
    700:01:27,857 --> 00:01:30,857Прекратите.
    800:01:35,100 --> 00:01:37,418Алло!
    900:01:37,418 --> 00:01:40,256Да. Я поговорила с ними.
    1000:01:40,256 --> 00:01:43,256Все в порядке.
    1100:01:43,746 --> 00:01:46,418Да.
    1200:01:46,418 --> 00:01:48,578Нет. Послушай меня...
    1300:01:48,578 --> 00:01:51,017Я не решилась сказать им.
    1400:01:51,017 --> 00:01:52,977Это слишком трудно!
    1500:01:52,977 --> 00:01:55,105Я не знаю.
    1600:01:55,105 --> 00:01:57,740Не знаю.
    1700:01:57,740 --> 00:02:00,533Ты не мог бы приехатьчерез час?
    1800:02:00,533 --> 00:02:03,533Тогда мне придетсяпоговорить с ними.
    1900:02:03,900 --> 00:02:05,828Понимаешь?
    2000:02:05,828 --> 00:02:06,859Зузу!

    MediaInfo

    GeneralUnique ID : 236779190624437422361722202550696108823 (0xB222036A74B441229377830B96E36317)Complete name : [apreder]Zouzou(2014)DVB.mkvFormat : MatroskaFormat version : Version 2File size : 1.72 GiBDuration : 1 h 18 minOverall bit rate : 3 147 kb/sMovie name : ZouzouReleased date : 2014-12-24Encoded date : UTC 2016-08-20 10:39:55Writing application : mkvmerge v9.3.1 ('Mask Machine') 64bitWriting library : libebml v1.3.4 + libmatroska v1.4.5Cover : YesAttachments : cover.jpg / small_cover.jpgACTOR : Jeanne Ferron, Florence Muller, Laure CalamyDIRECTOR : Blandine LenoirGENRE : Drama, FamilyIMDB : tt2502724KEYWORDS : perectracker.orgLAW_RATING : 16+
    VideoID : 1Format : MPEG VideoFormat version : Version 2Format profile : Main@MainFormat settings, BVOP : YesFormat settings, Matrix : CustomFormat settings, GOP : M=4, N=12Format settings, picture structure : FrameCodec ID : V_MPEG2Codec ID/Info : MPEG 1 or 2 VideoDuration : 1 h 18 minBit rate : 2 892 kb/sMaximum bit rate : 3 200 kb/sWidth : 720 pixelsHeight : 576 pixelsDisplay aspect ratio : 16:9Frame rate mode : ConstantFrame rate : 25.000 FPSStandard : PALColor space : YUVChroma subsampling : 4:2:0Bit depth : 8 bitsScan type : InterlacedScan order : Top Field FirstCompression mode : LossyBits/(Pixel*Frame) : 0.279Stream size : 1.58 GiB (92%)Default : YesForced : No
    AudioID : 2Format : MPEG AudioFormat version : Version 1Format profile : Layer 2Codec ID : A_MPEG/L2Codec ID/Hint : MP2Duration : 1 h 18 minBit rate mode : ConstantBit rate : 192 kb/sChannel(s) : 2 channelsSampling rate : 48.0 kHzCompression mode : LossyStream size : 108 MiB (6%)Language : FrenchDefault : YesForced : No
    Text #1ID : 3Format : UTF-8Codec ID : S_TEXT/UTF8Codec ID/Info : UTF-8 Plain TextLanguage : RussianDefault : NoForced : No
    Text #2ID : 4Format : UTF-8Codec ID : S_TEXT/UTF8Codec ID/Info : UTF-8 Plain TextLanguage : EnglishDefault : NoForced : No
    Text #3ID : 5Format : UTF-8Codec ID : S_TEXT/UTF8Codec ID/Info : UTF-8 Plain TextLanguage : FrenchDefault : NoForced : No
    Text #4ID : 6Format : UTF-8Codec ID : S_TEXT/UTF8Codec ID/Info : UTF-8 Plain TextLanguage : GermanDefault : NoForced : No
    Text #5ID : 7Format : UTF-8Codec ID : S_TEXT/UTF8Codec ID/Info : UTF-8 Plain TextLanguage : DutchDefault : NoForced : No

    Скриншот c названием фильма

    Скриншоты

    Резервные скриншоты


    -[3'240]
    Скачать .torrent

    Скачать торрент-файл бесплатно и на максимальной скорости!

    Как скачивать? · Что такое торрент? · Рейтинг и ограничения

    !ВНИМАНИЕ!
    Сайт не распространяет и не хранит электронные версии произведений, а занимается лишь лишь предоставлением доступа к создаваемому пользователями каталогу ссылок на торрент-файлы, которые содержат только списки хеш-сумм, убедительная просьба с жалобами обращаться напрямую к пользователю. Файлы для обмена на трекере предоставлены пользователями сайта, и администрация не несёт ответственности за их содержание. Просьба не заливать файлы, защищенные авторскими правами, а также файлы нелегального содержания!


    _________________
    [Профиль] [ЛС]
    Показать сообщения:    
    Ответить на тему

    Текущее время: Сегодня, в 00:09

    Часовой пояс: GMT + 2



    Вы не можете начинать темы
    Вы не можете отвечать на сообщения
    Вы не можете редактировать свои сообщения
    Вы не можете удалять свои сообщения
    Вы не можете голосовать в опросах
    Вы не можете прикреплять файлы к сообщениям
    Вы не можете скачивать файлы