Register  ·  Log in
Forgot password?

  • Иллюзия обмана 2 / Now You See Me 2 (Джон М. Чу / Jon Chu) [2016, США, боевик, триллер, комедия, BDRip] Dub

    Reply to topic
    Author Message


    Post 22-Aug-2016 12:52



    Иллюзия обмана 2 / Now You See Me 2
    Страна: США
    Жанр: боевик, триллер, комедия
    Год выпуска: 2016
    Продолжительность: 02:09:29
    Перевод: Профессиональный (дублированный)
    Cубтитры: нет
    Режиссер: Джон М. Чу / Jon Chu
    В ролях: Лиззи Каплан, Дэниэл Рэдклифф, Дэйв Франко, Марк Руффало, Джесси Айзенберг, Морган Фриман, Вуди Харрельсон, Майкл Кейн
    Описание: «Четыре всадника», команда лучших иллюзионистов мира, снова в сборе! Их «магия» стала еще совершеннее, а враги — опаснее. На сей раз им предстоит спасти свою репутацию и вывести на чистую воду жестокого техномагната…
    Релиз от , автор - vsobbol
    Качество видео: BDRip (Исх. NOW_YOU_SEE_ME_2_REMUX_HDCLUB)
    Формат видео: AVI
    Видео: 720x400 (16:9), 24.000 fps, XviD Build 73, 1233 kbps avg, 0.178 bit/pixel
    Аудио: 48.0 kHz, AC3 Dolby Digital, 5/1 (L C R, Side: L R, LFE) ch, 384 kbps


    GeneralComplete name : : AVIFormat/Info : Audio Video InterleaveFile size : 1.46 GiBDuration : 2h 8mnOverall bit rate : 1 626 KbpsWriting application : VirtualDubMod | || (build 2550/release)Writing library : VirtualDubMod build 2550/release
    VideoID : 0Format : MPEG-4 VisualFormat profile : Advanced Simple@L5Format settings, BVOP : 1Format settings, QPel : NoFormat settings, GMC : No warppointsFormat settings, Matrix : CustomCodec ID : XVIDCodec ID/Hint : XviDDuration : 2h 8mnBit rate : 1 233 KbpsWidth : 720 pixelsHeight : 400 pixelsDisplay aspect ratio : 16:9Frame rate : 24.000 fpsColor space : YUVChroma subsampling : 4:2:0Bit depth : 8 bitsScan type : ProgressiveCompression mode : LossyBits/(Pixel*Frame) : 0.178Stream size : 1.11 GiB (76%)Writing library : XviD 73
    AudioID : 1Format : AC-3Format/Info : Audio Coding 3Mode extension : CM (complete main)Format settings, Endianness : BigCodec ID : 2000Duration : 2h 8mnBit rate mode : ConstantBit rate : 384 KbpsChannel(s) : 6 channelsChannel positions : Front: L C R, Side: L R, LFESampling rate : 48.0 KHzFrame rate : 31.250 fps (1536 spf)Compression mode : LossyStream size : 354 MiB (24%)Alignment : Split accross interleavesInterleave, duration : 42 ms (1.00 video frame)Interleave, preload duratio : 500 ms


    Download .torrent

    Download free and at maximum speed!

    How to Download? · What is a torrent? · Ratings and Limitations

    The site does not extend and does not store electronic(digital) versions of products, and only gives access to a reference catalogue created by users on torrent-files which contain only lists of the hash-sums, the earnest entreaty, with complaints(abuse) to access directly to the user. Files for an exchange on tracker are given by users of a site, and the administration does not bear the responsibility for their maintenance. The request to not fill in the files protected by copyrights, and also files of the illegal maintenance!

    [Profile] [PM]
    Display posts from previous:    
    Reply to topic

    The time now is: Today 14:23

    All times are GMT + 3 Hours

    You cannot post new topics in this forum
    You cannot reply to topics in this forum
    You cannot edit your posts in this forum
    You cannot delete your posts in this forum
    You cannot vote in polls in this forum
    You cannot attach files in this forum
    You cannot download files in this forum