BitTorrentTracker PerecTracker.org
BitTorrentTracker PerecTracker.org
    
Регистрация  ·  Вход
 
 · 
Забыли пароль?

  • Легкие деньги / Хорошие люди / Good People (Генрик Рубен Генц / Henrik Ruben Genz) [2014, США, Боевик, триллер, криминал, HDRip] Dub (ТК Кинопоказ HD-1)

    Ответить на тему
     
    Автор Сообщение

    Light

    Создавать темы 22-Авг-2016 11:52

           

    [Цитировать]

    Легкие деньги / Хорошие люди / Good People
    Страна: США
    Жанр: Боевик, триллер, криминал
    Год выпуска: 2014
    Продолжительность: 01:30:34
    Перевод: Профессиональный (дублированный) ТК Кинопоказ HD-1
    Cубтитры: нет
    Режиссер: Генрик Рубен Генц / Henrik Ruben Genz
    В ролях: Джеймс Франко, Кейт Хадсон, Омар Си, Том Уилкинсон, Сэм Спруэлл, Анна Фрил, Диармэйд Мурта, Диана Хардкэсл, Ласко Аткинс, Майкл Джибсон
    Описание: Том и Анна обыкновенная семейная пара. Работа, дом, долги по кредитам. Но ситуация меняется. Владелец их квартиры, живший этажом ниже, внезапно умирает, и супруги находят у него сумку с деньгами. 370 000 долларов, о которых, похоже, никто не знает. Жизнь Том и Анны может измениться в одночасье, но есть одна проблема. Эти деньги принадлежат бандитам, которые хотят их найти и забрать любой ценой.....
    Сэмпл: http://multi-up.com/1114496
    Качество видео: HDRip
    Формат видео: AVI
    Видео: XviD 73, 720x304, (2.35:1), 23,976 fps, 1010 Кбит/с, 8 бит
    Аудио: Русский (МР3, 2 ch, 48,0 KHz, 128 Kbps)

    MediaInfo

    Общее
    Полное имя : F:\Видеофильмы\В и д е о\Легкие деньги Хорошие люди (боевик криминал 2014г).avi
    Формат : AVI
    Формат/Информация : Audio Video Interleave
    Размер файла : 743 Мбайт
    Продолжительность : 1 ч. 30 м.
    Общий поток : 1147 Кбит/сек
    Программа кодирования : VirtualDubMod 1.5.10.3 | www.virtualdub-fr.org || (build 2550/release)
    Библиотека кодирования : VirtualDubMod build 2550/release
    Видео
    Идентификатор : 0
    Формат : MPEG-4 Visual
    Профиль формата : Advanced Simple@L5
    Параметр BVOP формата : 1
    Параметр QPel формата : Нет
    Параметр GMC формата : Без точки перехода
    Параметр матрицы формата : Выборочная
    Идентификатор кодека : XVID
    Идентификатор кодека/Подсказка : XviD
    Продолжительность : 1 ч. 30 м.
    Битрейт : 1010 Кбит/сек
    Ширина : 720 пикселей
    Высота : 304 пикселя
    Соотношение сторон : 2,35:1
    Частота кадров : 23,976 (23976/1000) кадра/сек
    Цветовое пространство : YUV
    Субдискретизация насыщенности : 4:2:0
    Битовая глубина : 8 бит
    Тип развёртки : Прогрессивная
    Метод сжатия : С потерями
    Бит/(Пиксели*Кадры) : 0.192
    Размер потока : 654 Мбайт (88%)
    Библиотека кодирования : XviD 73
    Аудио
    Идентификатор : 1
    Формат : MPEG Audio
    Версия формата : Version 1
    Профиль формата : Layer 3
    Идентификатор кодека : 55
    Идентификатор кодека/Подсказка : MP3
    Продолжительность : 1 ч. 30 м.
    Вид битрейта : Постоянный
    Битрейт : 128 Кбит/сек
    Каналы : 2 канала
    Частота : 48,0 КГц
    Метод сжатия : С потерями
    Размер потока : 82,9 Мбайт (11%)
    Выравнивание : Соединение по промежуткам
    Продолжительность промежутка : 42 мс. (1,00 видеокадр)
    Время предзагрузки промежутка : 504 мс.
    Библиотека кодирования : LAME3.99r
    Настройки программы : -m s -V 4 -q 2 -lowpass 17 -b 128

    Скриншот c названием фильма

    Скриншоты

    Скачать .torrent

    Скачать торрент-файл бесплатно и на максимальной скорости!

    Как скачивать? · Что такое торрент? · Рейтинг и ограничения

    !ВНИМАНИЕ!
    Сайт не распространяет и не хранит электронные версии произведений, а занимается лишь лишь предоставлением доступа к создаваемому пользователями каталогу ссылок на торрент-файлы, которые содержат только списки хеш-сумм, убедительная просьба с жалобами обращаться напрямую к пользователю. Файлы для обмена на трекере предоставлены пользователями сайта, и администрация не несёт ответственности за их содержание. Просьба не заливать файлы, защищенные авторскими правами, а также файлы нелегального содержания!


    _________________
    [Профиль] [ЛС]
    Показать сообщения:    
    Ответить на тему

    Текущее время: Сегодня, в 04:22

    Часовой пояс: GMT + 2



    Вы не можете начинать темы
    Вы не можете отвечать на сообщения
    Вы не можете редактировать свои сообщения
    Вы не можете удалять свои сообщения
    Вы не можете голосовать в опросах
    Вы не можете прикреплять файлы к сообщениям
    Вы не можете скачивать файлы