BitTorrentTracker PerecTracker.org
BitTorrentTracker PerecTracker.org
    
Регистрация  ·  Вход
 
 · 
Забыли пароль?

  • Луи Сир, самый сильный человек в мире / Louis Cyr: l\'homme le plus fort du monde (Даниель Роби / Daniel Roby) [2013, Канада, исторический, биографическая драма, экранизация, DVB] Original (Fre) + Sub (Rus, Eng, Fre, Deu)

    Ответить на тему
     
    Автор Сообщение

    Light

    Создавать темы 22-Авг-2016 11:52

           

    [Цитировать]

    Луи Сир, самый сильный человек в мире
    Louis Cyr: l'homme le plus fort du monde-Страна: Канада
    Жанр: исторический, биографическая драма, экранизация
    Год выпуска: 2013
    Продолжительность: 02:05:09
    Перевод: Субтитры (перевод И.Рыбкиной, Éclair Media)
    Cубтитры: русские, английские, французские, немецкие, нидерландские
    Оригинальная аудиодорожка: французский
    Режиссер: Даниель Роби / Daniel RobyВ ролях: Антуан Бертран / Antoine Bertrand (Louis Cyr), Гийом Кир / Guillaume Cyr (Horace Barré), Роз-Маите Эркорека / Rose-Maïté Erkoreka (Melina Cyr), Жильбер Сикотт / Gilbert Sicotte (Gustave Lambert), Гил Беллоуз / Gil Bellows (Richard Kyle Fox)
    Описание: по одноименномй роману Пола Ола / Paul Ohl (2013).
    Канадского борца Луи Сира (1863-1912) часто называют самым сильным человеком всех времён. Уже в детстве он поражал окружающих своими способностями. Его достижения на спортивной арене поражают воображение, а некоторые рекорды не побиты до сих пор. Так, например, Луи мог поднять и удержать на спине вес почти в две тонны! Но несмотря на свою силу, Луи оставался крайне уязвимым человеком, который свои самые трудные победы одержал вне спортивной арены.
    Доп. информация: Hot Bird (13.0°E) TV5MONDE Europe DVB-S. В отличие от имеющегося DVDRip с любительскими субтитрами, здесь профессиональный перевод Eclair Media.
    Награды: 2 высших национальных кинопремии Канады "Джинни" 2014 (художник-постановщик, художник по костюмам); 9 премий "Жютра" 2014 Канадской Академии кино и телевидения ("Золотой билет", лучший фильм, лучший актер - Antoine Bertrand, актер второго плана - Guillaume Cyr, художник-постановщик, художник по костюмам, грим, стилист, звук).

    Качество видео: DVB
    Формат видео: MKV
    Видео: MPEG Video 2, 720x576@1024x576 (16:9), 25 fps, ~2712 kbps avg, 0.262 bit/pixel
    Аудио: MPEG Audio 2, 2 ch, 48 kHz, 192 kbps - французский
    Формат субтитров: softsub (SRT)

    Пример субтитров

    100:01:09,831 --> 00:01:12,831ЛУИ СИРСамый сильный человек в мире
    200:01:37,637 --> 00:01:40,637Сен-Жан-де-МатаКвебек, 1910 г.
    300:02:19,276 --> 00:02:22,276Подождите минуту.
    400:03:04,782 --> 00:03:07,782Если что-то принесли ей,я передам.
    500:03:09,782 --> 00:03:12,258Нет. Я должен вручить ей лично.
    600:03:12,258 --> 00:03:15,258Сожалею, г-н Барре.
    700:03:15,901 --> 00:03:16,945Это важно.
    800:03:16,945 --> 00:03:19,945Она не хочет вас видеть.
    900:03:24,379 --> 00:03:27,379Я не уйду отсюда,пока не переговорю с ней.
    1000:03:31,742 --> 00:03:33,338Что, Гораций?
    1100:03:33,338 --> 00:03:36,025Если что-то принес мне,оставь и уходи.
    1200:03:36,025 --> 00:03:39,025Сначала должен что-то сказать.
    1300:03:39,618 --> 00:03:40,622Нет.
    1400:03:40,622 --> 00:03:43,069Некоторые вещи он рассказалтолько мне
    1500:03:43,069 --> 00:03:46,069и никому другому.
    1600:03:46,859 --> 00:03:49,859Будешь жалеть о том,что не послушала!
    1700:03:55,337 --> 00:03:57,467Твой отец приехал сюда в 16 лет.
    1800:03:57,467 --> 00:04:00,102Ты знала?
    1900:04:00,102 --> 00:04:02,141Не для учебы.
    2000:04:02,141 --> 00:04:04,463Он привез вещи сестер.

    MediaInfo

    GeneralUnique ID : 202553265218607811964138267723700447470 (0x986257027E3FE28EB34D4622438128EE)Complete name : [apreder]Louis_Cyr(2013)DVB.mkvFormat : MatroskaFormat version : Version 2File size : 2.59 GiBDuration : 2 h 5 minOverall bit rate : 2 963 kb/sMovie name : Louis Cyr: l'homme le plus fort du mondeReleased date : 2013-07-12Encoded date : UTC 2016-08-20 09:16:02Writing application : mkvmerge v9.3.1 ('Mask Machine') 64bitWriting library : libebml v1.3.4 + libmatroska v1.4.5Cover : YesAttachments : cover.jpg / small_cover.jpgACTOR : Antoine Bertrand, Guillaume Cyr, Rose-Maпtй ErkorekaDIRECTOR : Daniel RobyGENRE : Biography, Drama, HistoryIMDB : tt1657513KEYWORDS : perectracker.orgLAW_RATING : 16+
    VideoID : 1Format : MPEG VideoFormat version : Version 2Format profile : Main@MainFormat settings, BVOP : YesFormat settings, Matrix : CustomFormat settings, GOP : M=4, N=12Format settings, picture structure : FrameCodec ID : V_MPEG2Codec ID/Info : MPEG 1 or 2 VideoDuration : 2 h 5 minBit rate : 2 712 kb/sMaximum bit rate : 3 200 kb/sWidth : 720 pixelsHeight : 576 pixelsDisplay aspect ratio : 16:9Frame rate mode : ConstantFrame rate : 25.000 FPSStandard : PALColor space : YUVChroma subsampling : 4:2:0Bit depth : 8 bitsScan type : InterlacedScan order : Top Field FirstCompression mode : LossyBits/(Pixel*Frame) : 0.262Stream size : 2.37 GiB (92%)Default : YesForced : No
    AudioID : 2Format : MPEG AudioFormat version : Version 1Format profile : Layer 2Mode : Joint stereoMode extension : Intensity Stereo + MS StereoCodec ID : A_MPEG/L2Codec ID/Hint : MP2Duration : 2 h 5 minBit rate mode : ConstantBit rate : 192 kb/sChannel(s) : 2 channelsSampling rate : 48.0 kHzCompression mode : LossyStream size : 172 MiB (6%)Language : FrenchDefault : YesForced : No
    Text #1ID : 3Format : UTF-8Codec ID : S_TEXT/UTF8Codec ID/Info : UTF-8 Plain TextLanguage : RussianDefault : NoForced : No
    Text #2ID : 4Format : UTF-8Codec ID : S_TEXT/UTF8Codec ID/Info : UTF-8 Plain TextLanguage : EnglishDefault : NoForced : No
    Text #3ID : 5Format : UTF-8Codec ID : S_TEXT/UTF8Codec ID/Info : UTF-8 Plain TextLanguage : FrenchDefault : NoForced : No
    Text #4ID : 6Format : UTF-8Codec ID : S_TEXT/UTF8Codec ID/Info : UTF-8 Plain TextLanguage : GermanDefault : NoForced : No
    Text #5ID : 7Format : UTF-8Codec ID : S_TEXT/UTF8Codec ID/Info : UTF-8 Plain TextLanguage : DutchDefault : NoForced : No

    Скриншот c названием фильма

    Скриншоты

    Резервные скриншоты


    -[3'239]
    Скачать .torrent

    Скачать торрент-файл бесплатно и на максимальной скорости!

    Как скачивать? · Что такое торрент? · Рейтинг и ограничения

    !ВНИМАНИЕ!
    Сайт не распространяет и не хранит электронные версии произведений, а занимается лишь лишь предоставлением доступа к создаваемому пользователями каталогу ссылок на торрент-файлы, которые содержат только списки хеш-сумм, убедительная просьба с жалобами обращаться напрямую к пользователю. Файлы для обмена на трекере предоставлены пользователями сайта, и администрация не несёт ответственности за их содержание. Просьба не заливать файлы, защищенные авторскими правами, а также файлы нелегального содержания!


    _________________
    [Профиль] [ЛС]
    Показать сообщения:    
    Ответить на тему

    Текущее время: Сегодня, в 11:45

    Часовой пояс: GMT + 2



    Вы не можете начинать темы
    Вы не можете отвечать на сообщения
    Вы не можете редактировать свои сообщения
    Вы не можете удалять свои сообщения
    Вы не можете голосовать в опросах
    Вы не можете прикреплять файлы к сообщениям
    Вы не можете скачивать файлы