BitTorrentTracker PerecTracker.org
BitTorrentTracker PerecTracker.org
    
Регистрация  ·  Вход
 
 · 
Забыли пароль?

  • Мохаммед Дюбуа / Mohamed Dubois (Эрнесто Онья / Ernesto Ona) [2013, Франция, комедия, DVB] Original (Fre) + Sub (Rus, Eng, Fre, Deu)

    Ответить на тему
     
    Автор Сообщение

    Light

    Создавать темы 22-Авг-2016 11:52

           

    [Цитировать]

    Мохаммед Дюбуа
    Mohamed Dubois-Страна: Франция
    Жанр: комедия
    Год выпуска: 2013
    Продолжительность: 01:29:08
    Перевод: Субтитры (перевод М.Кузиной, Éclair Media)
    Cубтитры: русские, английские, французские, немецкие, нидерландские
    Оригинальная аудиодорожка: французский
    Режиссер: Эрнесто Онья / Ernesto OñaВ ролях: Эрик Жюдор / Eric Judor (Arnaud Dubois, alias Mohamed), Сабрина Уазани / Sabrina Ouazani (Sabrina Kherab), Юссеф Хайди / Youssef Hajdi (Mustafa Kherab), Мари Кремер / Marie Kremer (Marie), Биюна / Biyouna (Djamila), Жаки Берройе / Jackie Berroyer (Gerard Dubois)
    Описание: Богатый наследник Арно Дюбуа после ссоры с отцом уезжает из родного дома. Приехав в небольшой городок, он случайно знакомится с Мустафой и его сестрой Сабриной, в которую сразу же влюбляется. Понимая, что единственный способ соблазнить молодую женщину — выдать себя за араба, он представляется как Мохаммед. Теперь, поселившись рядом со своими новыми знакомыми, Дюбуа должен во всем соответствовать своему исламскому имени…
    Доп. информация: Hot Bird (13.0°E) TV5MONDE Europe DVB-S

    Качество видео: DVB
    Формат видео: MKV
    Видео: MPEG Video 2, 720x576@1024x576 (16:9), 25 fps, ~2816 kbps avg, 0.272 bit/pixel
    Аудио: MPEG Audio 2, 2 ch, 48 kHz, 192 kbps - французский
    Формат субтитров: softsub (SRT)

    Пример субтитров

    100:00:13,981 --> 00:00:16,981Меня зовут Арно Дюбуа.
    200:00:17,220 --> 00:00:19,513Пьяный!И без документов!
    300:00:19,513 --> 00:00:21,854Наглая арабская рожа!
    400:00:21,854 --> 00:00:24,311Я живу в Везине.
    500:00:24,311 --> 00:00:27,030Меня зовут Арно Дюбуа.Мой отец банкир.
    600:00:27,030 --> 00:00:29,904Он руководит банком "Бертье".
    700:00:29,904 --> 00:00:31,183Ну конечно!
    800:00:31,183 --> 00:00:33,785Я француз, клянусь.
    900:00:33,785 --> 00:00:36,341-Мохаммед! Тебя за что взяли?-Лотфи?
    1000:00:36,341 --> 00:00:38,508Ну вот.Тебя зовут Мохаммед.
    1100:00:38,508 --> 00:00:41,508Меня зовут не Мохаммед.Вы ошибаетесь.
    1200:00:44,624 --> 00:00:46,979Это рейс в Рио-де-Жанеро?
    1300:00:46,979 --> 00:00:49,979МОХАММЕД ДЮБУА
    1400:00:51,624 --> 00:00:52,7836 месяцами раньше
    1500:00:52,783 --> 00:00:55,659"Пальм Бич Джерба".Слушаю вас.
    1600:00:55,659 --> 00:00:57,985Здравствуйте.Я хотел бы поговорить
    1700:00:57,985 --> 00:01:00,460с Саидом,тренером по теннису.
    1800:01:00,460 --> 00:01:03,460Передаю спортклуб.
    1900:01:03,786 --> 00:01:06,786Алло!
    2000:01:06,937 --> 00:01:09,182Алло!

    MediaInfo

    GeneralUnique ID : 189510047888694955586120192174333566003 (0x8E924EBED0B44D698AC454BCEFB71C33)Complete name : [apreder]Mohamed_Dubois(2013)DVB.mkvFormat : MatroskaFormat version : Version 2File size : 1.91 GiBDuration : 1 h 29 minOverall bit rate : 3 069 kb/sMovie name : Mohamed DuboisReleased date : 2013-05-01Encoded date : UTC 2016-08-21 09:04:24Writing application : mkvmerge v9.3.1 ('Mask Machine') 64bitWriting library : libebml v1.3.4 + libmatroska v1.4.5Cover : YesAttachments : cover.jpg / small_cover.jpgACTOR : Eric Judor, Sabrina OuazaniDIRECTOR : Ernesto OсaGENRE : ComedyIMDB : tt2855342KEYWORDS : perectracker.orgLAW_RATING : 16+
    VideoID : 1Format : MPEG VideoFormat version : Version 2Format profile : Main@MainFormat settings, BVOP : YesFormat settings, Matrix : CustomFormat settings, GOP : M=4, N=12Format settings, picture structure : FrameCodec ID : V_MPEG2Codec ID/Info : MPEG 1 or 2 VideoDuration : 1 h 29 minBit rate : 2 816 kb/sMaximum bit rate : 3 200 kb/sWidth : 720 pixelsHeight : 576 pixelsDisplay aspect ratio : 16:9Frame rate mode : ConstantFrame rate : 25.000 FPSStandard : PALColor space : YUVChroma subsampling : 4:2:0Bit depth : 8 bitsScan type : InterlacedScan order : Top Field FirstCompression mode : LossyBits/(Pixel*Frame) : 0.272Stream size : 1.75 GiB (92%)Default : YesForced : No
    AudioID : 2Format : MPEG AudioFormat version : Version 1Format profile : Layer 2Mode : Joint stereoMode extension : Intensity Stereo + MS StereoCodec ID : A_MPEG/L2Codec ID/Hint : MP2Duration : 1 h 29 minBit rate mode : ConstantBit rate : 192 kb/sChannel(s) : 2 channelsSampling rate : 48.0 kHzCompression mode : LossyStream size : 122 MiB (6%)Language : FrenchDefault : YesForced : No
    Text #1ID : 3Format : UTF-8Codec ID : S_TEXT/UTF8Codec ID/Info : UTF-8 Plain TextLanguage : RussianDefault : NoForced : No
    Text #2ID : 4Format : UTF-8Codec ID : S_TEXT/UTF8Codec ID/Info : UTF-8 Plain TextLanguage : EnglishDefault : NoForced : No
    Text #3ID : 5Format : UTF-8Codec ID : S_TEXT/UTF8Codec ID/Info : UTF-8 Plain TextLanguage : FrenchDefault : NoForced : No
    Text #4ID : 6Format : UTF-8Codec ID : S_TEXT/UTF8Codec ID/Info : UTF-8 Plain TextLanguage : GermanDefault : NoForced : No
    Text #5ID : 7Format : UTF-8Codec ID : S_TEXT/UTF8Codec ID/Info : UTF-8 Plain TextLanguage : DutchDefault : NoForced : No

    Скриншот c названием фильма

    Скриншоты

    Резервные скриншоты


    -[3'241]
    Скачать .torrent

    Скачать торрент-файл бесплатно и на максимальной скорости!

    Как скачивать? · Что такое торрент? · Рейтинг и ограничения

    !ВНИМАНИЕ!
    Сайт не распространяет и не хранит электронные версии произведений, а занимается лишь лишь предоставлением доступа к создаваемому пользователями каталогу ссылок на торрент-файлы, которые содержат только списки хеш-сумм, убедительная просьба с жалобами обращаться напрямую к пользователю. Файлы для обмена на трекере предоставлены пользователями сайта, и администрация не несёт ответственности за их содержание. Просьба не заливать файлы, защищенные авторскими правами, а также файлы нелегального содержания!


    _________________
    [Профиль] [ЛС]
    Показать сообщения:    
    Ответить на тему

    Текущее время: Сегодня, в 18:08

    Часовой пояс: GMT + 2



    Вы не можете начинать темы
    Вы не можете отвечать на сообщения
    Вы не можете редактировать свои сообщения
    Вы не можете удалять свои сообщения
    Вы не можете голосовать в опросах
    Вы не можете прикреплять файлы к сообщениям
    Вы не можете скачивать файлы