BitTorrentTracker PerecTracker.org
BitTorrentTracker PerecTracker.org
    
Регистрация  ·  Вход
 
 · 
Забыли пароль?

  • Тайная жизнь домашних животных / The Secret Life of Pets (2016) TS | Line

    Ответить на тему
     
    Автор Сообщение

    BOSS

    Создавать темы 22-Авг-2016 06:43

           

    [Цитировать]

    Тайная жизнь домашних животных / The Secret Life of Pets
    Страна: Япония [img=right]http://st.kp.yandex.net/images/flags/flag-9.gif" /> США
    Производство: Dentsu, Fuji Television Network Inc., Universal Pictures, Illumination Entertainment
    Год выпуска: 2016
    Жанр: мультфильм, комедия, семейный
    Продолжительность: 01:23:15
    Режиссеры: Ярроу Чейни, Крис Рено
    Авторы сценария: Синко Пол, Кен Даурио, Брайан Линч
    В ролях: Луис С.К., Эрик Стоунстрит, Кевин Харт, Дженни Слейт, Элли Кемпер, Альберт Брукс, Лэйк Белл, Дэна Карви, Хэннибал Бёресс
    Описание: Что делают домашние животные пока хозяева пропадают на работе..? С тоской смотрят в окно..? Смиренно дремлют на коврике у двери..? Как бы не так. Они ведут свою тайную жизнь...

    Перевод: Профессиональный (полное дублирование) | чистый звук
    Субтитры: нет-Качество: TS
    Формат: АVI
    Видео кодек: XviD
    Аудио кодек: АС3
    Видео: 720x384 (1.85:1), 25.000 fps, XviD build 73 ~2 047 kbps avg
    Аудио: 48 kHz, AC3 Dolby Digital, 2/0 (L,R) ch, ~192 kbps
    Бюджет: $75 000 000
    Дата премьеры (мир): 18 июня 2016
    Дата премьеры (РФ): 18 августа 2016, «UPI»

    Media Info

    General
    Complete name : The.Secret.Life.of.Pets.2016.D.TS.14OOMB.avi
    Format : AVI
    Format/Info : Audio Video Interleave
    File size : 1.36 GiB
    Duration : 1h 23mn
    Overall bit rate : 2 341 Kbps
    Writing application : VirtualDubMod 1.5.10.3 | (build 2550/release)
    Writing library : VirtualDubMod build 2550/release
    Video #0
    ID : 0
    Format : MPEG-4 Visual
    Format profile : Advanced Simple@L5
    Format settings, BVOP : 1
    Format settings, QPel : No
    Format settings, GMC : No warppoints
    Format settings, Matrix : Default (MPEG)
    Codec ID : XVID
    Codec ID/Hint : XviD
    Duration : 1h 23mn
    Bit rate : 2 047 Kbps
    Width : 720 pixels
    Height : 384 pixels
    Display aspect ratio : 1.85:1
    Frame rate : 25.000 fps
    Color space : YUV
    Chroma subsampling : 4:2:0
    Bit depth : 8 bits
    Scan type : Progressive
    Compression mode : Lossy
    Bits/(Pixel*Frame) : 0.296
    Stream size : 1.19 GiB (87%)
    Writing library : XviD 73
    Audio #1
    ID : 1
    Format : AC-3
    Format/Info : Audio Coding 3
    Mode extension : CM (complete main)
    Format settings, Endianness : Big
    Codec ID : 2000
    Duration : 1h 23mn
    Bit rate mode : Constant
    Bit rate : 192 Kbps
    Channel(s) : 2 channels
    Channel positions : Front: L R
    Sampling rate : 48.0 KHz
    Compression mode : Lossy
    Stream size : 114 MiB (8%)
    Alignment : Split accross interleaves

    Скриншоты

    Скачать .torrent

    Скачать торрент-файл бесплатно и на максимальной скорости!

    Как скачивать? · Что такое торрент? · Рейтинг и ограничения

    !ВНИМАНИЕ!
    Сайт не распространяет и не хранит электронные версии произведений, а занимается лишь лишь предоставлением доступа к создаваемому пользователями каталогу ссылок на торрент-файлы, которые содержат только списки хеш-сумм, убедительная просьба с жалобами обращаться напрямую к пользователю. Файлы для обмена на трекере предоставлены пользователями сайта, и администрация не несёт ответственности за их содержание. Просьба не заливать файлы, защищенные авторскими правами, а также файлы нелегального содержания!

    [Профиль] [ЛС]
    Показать сообщения:    
    Ответить на тему

    Текущее время: Сегодня, в 10:12

    Часовой пояс: GMT + 2



    Вы не можете начинать темы
    Вы не можете отвечать на сообщения
    Вы не можете редактировать свои сообщения
    Вы не можете удалять свои сообщения
    Вы не можете голосовать в опросах
    Вы не можете прикреплять файлы к сообщениям
    Вы не можете скачивать файлы