BitTorrentTracker PerecTracker.org
BitTorrentTracker PerecTracker.org
    
Регистрация  ·  Вход
 
 · 
Забыли пароль?

  • Как организовать оргию в небольшом городке / How to Plan an Orgy in a Small Town (Джереми Лалонд / Jeremy LaLonde) [2015, Канада, комедия, BDRemux 1080p] MVO (СПД) + Sub Eng + Original Eng

    Ответить на тему
     
    Автор Сообщение

    Light

    Создавать темы 21-Авг-2016 23:18

           

    [Цитировать]

    Как организовать оргию в небольшом городке / How to Plan an Orgy in a Small Town«What's a little sex between friends?»
    Страна: Канада
    Жанр: комедия
    Год выпуска: 2015
    Продолжительность: 01:41:09
    -
    Перевод: Любительский (многоголосый закадровый) СПД
    Cубтитры: английские
    Оригинальная аудиодорожка: английский
    -
    Режиссер: Джереми Лалонд / Jeremy LaLonde
    В ролях: Джуэл Стэйт, Эннис Эсмер, Лорен Ли Смит, Кэтрин Изабель, Джонас Черник, Кристин Хорн, Хершел Блатт, Натали Браун, Кристиан Бруун, Ной Кэппи
    -
    Описание: Кэсси Крэнстон «провинциальная шлюха», ставшая секс обозревателем. Она возвращается домой на похороны своей матери. В небольшом городке Биверс Ридж страсти накаляются, когда местные ребята, каждый преследуя свои цели, убеждают Кэсси организовать оргию.

    Тип релиза: BDRemux 1080p
    Контейнер: MKV
    Видео: MPEG-2 Video / NTSC 16:9 / 1920x1080 (1,78:1) / 17986 kbps / 23,976 fps / 0.362 bit/pixel / Main@High
    Аудио 1: Russian / Dolby Digital Audio / 5.1 Ch / 48 kHz / 448 kbps / 16 bit / MVO / СПД
    Аудио 2: English / DTS-HD Master Audio / 5.1 Ch / 48 kHz / 3129 kbps / 24-bit (DTS Core: 5.1 Ch / 48 kHz / 1509 kbps / 24-bit) / Original
    Формат субтитров: softsub (SRT)
    Навигация по главам: есть

    MediaInfo

    Общее
    Уникальный идентификатор                 : 206760712763277454184105482875619228190 (0x9B8CAA308DA473B081EC28DF9FCBBA1E)
    Полное имя                               : N:\BDRemux 1080p\How to Plan an Orgy in a Small Town.2015.BDRemux.1080p.mkv
    Формат                                   : Matroska
    Версия формата                           : Version 4 / Version 2
    Размер файла                             : 15,2 Гбайт
    Продолжительность                        : 1 ч. 41 м.
    Режим общего битрейта                    : Переменный
    Общий поток                              : 21,6 Мбит/сек
    Название фильма                          : Release for RuTracker © flaSI-I
    Дата кодирования                         : UTC 2016-08-15 18:29:20
    Программа кодирования                    : mkvmerge v9.3.1 ('Mask Machine') 64bit
    Библиотека кодирования                   : libebml v1.3.4 + libmatroska v1.4.5
    Видео
    Идентификатор                            : 1
    Формат                                   : MPEG Video
    Версия формата                           : Version 2
    Профиль формата                          : Main@High
    Параметр BVOP формата                    : Да
    Параметр матрицы формата                 : Выборочная
    Параметр GOP формата                     : M=3, N=15
    Идентификатор кодека                     : V_MPEG2
    Идентификатор кодека/Информация          : MPEG 1 or 2 Video
    Продолжительность                        : 1 ч. 41 м.
    Вид битрейта                             : Переменный
    Битрейт                                  : 18,0 Мбит/сек
    Максимальный битрейт                     : 25,0 Мбит/сек
    Ширина                                   : 1920 пикселей
    Высота                                   : 1080 пикселей
    Соотношение сторон                       : 16:9
    Режим частоты кадров                     : Постоянный
    Частота кадров                           : 23,976 (24000/1001) кадра/сек
    Цветовое пространство                    : YUV
    Субдискретизация насыщенности            : 4:2:0
    Битовая глубина                          : 8 бит
    Тип развёртки                            : Прогрессивная
    Метод сжатия                             : С потерями
    Бит/(Пиксели*Кадры)                      : 0.362
    Временной код первого кадра              : 00:00:00:00
    Оригинал временного кода                 : Group of pictures header
    GOP, открыто/закрыто                     : Закрыто
    Размер потока                            : 12,7 Гбайт (83%)
    Язык                                     : English
    Default                                  : Да
    Forced                                   : Нет
    Аудио #1
    Идентификатор                            : 2
    Формат                                   : AC-3
    Формат/Информация                        : Audio Coding 3
    Расширение режима                        : CM (complete main)
    Параметр Endianness формата              : Big
    Идентификатор кодека                     : A_AC3
    Продолжительность                        : 1 ч. 41 м.
    Вид битрейта                             : Постоянный
    Битрейт                                  : 448 Кбит/сек
    Каналы                                   : 6 каналов
    Расположение каналов                     : Front: L C R, Side: L R, LFE
    Частота                                  : 48,0 КГц
    Частота кадров                           : 31,250 кадров/сек (1536 spf)
    Метод сжатия                             : С потерями
    Размер потока                            : 324 Мбайт (2%)
    Заголовок                                : MVO / СПД
    Язык                                     : Russian
    Default                                  : Да
    Forced                                   : Нет
    Аудио #2
    Идентификатор                            : 3
    Формат                                   : DTS
    Формат/Информация                        : Digital Theater Systems
    Профиль формата                          : MA / Core
    Режим                                    : 16
    Параметр Endianness формата              : Big
    Идентификатор кодека                     : A_DTS
    Продолжительность                        : 1 ч. 41 м.
    Вид битрейта                             : Переменный / Постоянный
    Битрейт                                  : 3072 Кбит/сек / 1509 Кбит/сек
    Каналы                                   : 6 каналов
    Расположение каналов                     : Front: L C R, Side: L R, LFE
    Частота                                  : 48,0 КГц
    Частота кадров                           : 93,750 кадра/сек (512 spf)
    Битовая глубина                          : 24 бит
    Метод сжатия                             : Без потерь / Lossy
    Размер потока                            : 2,21 Гбайт (15%)
    Заголовок                                : Original
    Язык                                     : English
    Default                                  : Нет
    Forced                                   : Нет
    Текст
    Идентификатор                            : 4
    Формат                                   : UTF-8
    Идентификатор кодека                     : S_TEXT/UTF8
    Идентификатор кодека/Информация          : UTF-8 Plain Text
    Продолжительность                        : 1 ч. 37 м.
    Битрейт                                  : 77 бит/сек
    Count of elements                        : 1282
    Размер потока                            : 55,4 Кбайт (0%)
    Заголовок                                : Original
    Язык                                     : English
    Default                                  : Нет
    Forced                                   : Нет
    Меню
    00:00:00.000                             : en:Chapter 1
    00:10:35.009                             : en:Chapter 2
    00:26:10.944                             : en:Chapter 3
    00:38:10.913                             : en:Chapter 4
    00:53:29.956                             : en:Chapter 5
    01:03:17.960                             : en:Chapter 6
    01:14:05.899                             : en:Chapter 7
    01:25:22.909                             : en:Chapter 8
    01:38:04.879                             : en:Chapter 9

    Скриншоты

    Скачать .torrent

    Скачать торрент-файл бесплатно и на максимальной скорости!

    Как скачивать? · Что такое торрент? · Рейтинг и ограничения

    !ВНИМАНИЕ!
    Сайт не распространяет и не хранит электронные версии произведений, а занимается лишь лишь предоставлением доступа к создаваемому пользователями каталогу ссылок на торрент-файлы, которые содержат только списки хеш-сумм, убедительная просьба с жалобами обращаться напрямую к пользователю. Файлы для обмена на трекере предоставлены пользователями сайта, и администрация не несёт ответственности за их содержание. Просьба не заливать файлы, защищенные авторскими правами, а также файлы нелегального содержания!


    _________________
    [Профиль] [ЛС]
    Показать сообщения:    
    Ответить на тему

    Текущее время: Сегодня, в 16:16

    Часовой пояс: GMT + 2



    Вы не можете начинать темы
    Вы не можете отвечать на сообщения
    Вы не можете редактировать свои сообщения
    Вы не можете удалять свои сообщения
    Вы не можете голосовать в опросах
    Вы не можете прикреплять файлы к сообщениям
    Вы не можете скачивать файлы