BitTorrentTracker PerecTracker.org
BitTorrentTracker PerecTracker.org
    
Регистрация  ·  Вход
 
 · 
Забыли пароль?

  • Проделки близнецов / Das doppelte Lottchen (Тоби Генкель / Toby Genkel) [2007, Германия, мультфильм, комедия, семейный, DVB] MVO

    Ответить на тему
     
    Автор Сообщение

    Flirldrerve

    Создавать темы 21-Авг-2016 23:18

           

    [Цитировать]

    Проделки близнецов
    Das doppelte Lottchen
    Год выпуска: 2007
    Страна: Германия
    Жанр: мультфильм, комедия, семейный
    Продолжительность: 01:05:42
    Перевод: Профессиональный (Многоголосый закадровый)
    субтитры: отсутствуют-Режиссёр: Тоби Генкель : Toby Genkel-Роли озвучивали: Селине Фогт, Карин С. Тице, Андреас Фрёлих, Аня Клинг, Inra von Wangenheim-Zeise, Вольфганг Фёльц, Йовита Дермота, Антония фон Роматовский, Роберт Мисслер, Robert Tillian-Описание: В детском лагере встречаются две похожие, как две капли воды, девочки — Луиза из Вены и Лотта из Мюнхена. Вскоре они выясняют, что являются близняшками, разлучёнными в младенчестве, причём Лотта живёт с мамой, а Луиза с папой. Чтобы выяснить, почему их родители разошлись, девочки решают поменяться ролями: Луиза возвращается из лагеря к маме, а Лотта — к папе…- релиз:
    За исходник спасибо Злобин Глеб-Качество: DVB
    Формат: MPEG-PS
    Видео кодек: MPEG
    Аудио кодек: MPEG Audio
    Видео: 720x576, 25 fps, ~2122 kbps avg, 0.205 bit/pixel
    Аудио: 48 kHz, 2 ch, ~192 kbps avg

    MediaInfo

    General
    ID : 1 (0x1)
    Complete name : D:\Das doppelte Lottchen.2007.DVB.ts
    Format : MPEG-TS
    File size : 1.12 GiB
    Duration : 1 h 5 min
    Overall bit rate mode : Variable
    Overall bit rate : 2 436 kb/s
    Video
    ID : 305 (0x131)
    Menu ID : 104 (0x68)
    Format : AVC
    Format/Info : Advanced Video Codec
    Format profile : High@L3
    Format settings, CABAC : Yes
    Format settings, ReFrames : 3 frames
    Codec ID : 27
    Duration : 1 h 5 min
    Bit rate : 2 122 kb/s
    Width : 720 pixels
    Height : 576 pixels
    Display aspect ratio : 16:9
    Frame rate : 25.000 FPS
    Standard : Component
    Color space : YUV
    Chroma subsampling : 4:2:0
    Bit depth : 8 bits
    Scan type : Interlaced
    Scan type, store method : Separated fields
    Scan order : Top Field First
    Bits/(Pixel*Frame) : 0.205
    Stream size : 997 MiB (87%)
    Color range : Limited
    Color primaries : BT.601 PAL
    Transfer characteristics : BT.470 System B, BT.470 System G
    Matrix coefficients : BT.601
    Audio
    ID : 101 (0x65)
    Menu ID : 104 (0x68)
    Format : MPEG Audio
    Format version : Version 1
    Format profile : Layer 2
    Codec ID : 3
    Duration : 1 h 5 min
    Bit rate mode : Constant
    Bit rate : 192 kb/s
    Channel(s) : 2 channels
    Sampling rate : 48.0 kHz
    Compression mode : Lossy
    Delay relative to video : -120 ms
    Stream size : 90.2 MiB (8%)
    Language : English
    Скачать .torrent

    Скачать торрент-файл бесплатно и на максимальной скорости!

    Как скачивать? · Что такое торрент? · Рейтинг и ограничения

    !ВНИМАНИЕ!
    Сайт не распространяет и не хранит электронные версии произведений, а занимается лишь лишь предоставлением доступа к создаваемому пользователями каталогу ссылок на торрент-файлы, которые содержат только списки хеш-сумм, убедительная просьба с жалобами обращаться напрямую к пользователю. Файлы для обмена на трекере предоставлены пользователями сайта, и администрация не несёт ответственности за их содержание. Просьба не заливать файлы, защищенные авторскими правами, а также файлы нелегального содержания!


    _________________
    [Профиль] [ЛС]
    Показать сообщения:    
    Ответить на тему

    Текущее время: Сегодня, в 03:10

    Часовой пояс: GMT + 2



    Вы не можете начинать темы
    Вы не можете отвечать на сообщения
    Вы не можете редактировать свои сообщения
    Вы не можете удалять свои сообщения
    Вы не можете голосовать в опросах
    Вы не можете прикреплять файлы к сообщениям
    Вы не можете скачивать файлы