Register  ·  Log in
Forgot password?

  • Проделки близнецов / Das doppelte Lottchen (Тоби Генкель / Toby Genkel) [2007, Германия, мультфильм, комедия, семейный, DVB] MVO

    Reply to topic
    Author Message


    Post 22-Aug-2016 00:18



    Проделки близнецов
    Das doppelte Lottchen
    Год выпуска: 2007
    Страна: Германия
    Жанр: мультфильм, комедия, семейный
    Продолжительность: 01:05:42
    Перевод: Профессиональный (Многоголосый закадровый)
    субтитры: отсутствуют-Режиссёр: Тоби Генкель : Toby Genkel-Роли озвучивали: Селине Фогт, Карин С. Тице, Андреас Фрёлих, Аня Клинг, Inra von Wangenheim-Zeise, Вольфганг Фёльц, Йовита Дермота, Антония фон Роматовский, Роберт Мисслер, Robert Tillian-Описание: В детском лагере встречаются две похожие, как две капли воды, девочки — Луиза из Вены и Лотта из Мюнхена. Вскоре они выясняют, что являются близняшками, разлучёнными в младенчестве, причём Лотта живёт с мамой, а Луиза с папой. Чтобы выяснить, почему их родители разошлись, девочки решают поменяться ролями: Луиза возвращается из лагеря к маме, а Лотта — к папе…- релиз:
    За исходник спасибо Злобин Глеб-Качество: DVB
    Формат: MPEG-PS
    Видео кодек: MPEG
    Аудио кодек: MPEG Audio
    Видео: 720x576, 25 fps, ~2122 kbps avg, 0.205 bit/pixel
    Аудио: 48 kHz, 2 ch, ~192 kbps avg


    ID : 1 (0x1)
    Complete name : D:\Das doppelte Lottchen.2007.DVB.ts
    Format : MPEG-TS
    File size : 1.12 GiB
    Duration : 1 h 5 min
    Overall bit rate mode : Variable
    Overall bit rate : 2 436 kb/s
    ID : 305 (0x131)
    Menu ID : 104 (0x68)
    Format : AVC
    Format/Info : Advanced Video Codec
    Format profile : High@L3
    Format settings, CABAC : Yes
    Format settings, ReFrames : 3 frames
    Codec ID : 27
    Duration : 1 h 5 min
    Bit rate : 2 122 kb/s
    Width : 720 pixels
    Height : 576 pixels
    Display aspect ratio : 16:9
    Frame rate : 25.000 FPS
    Standard : Component
    Color space : YUV
    Chroma subsampling : 4:2:0
    Bit depth : 8 bits
    Scan type : Interlaced
    Scan type, store method : Separated fields
    Scan order : Top Field First
    Bits/(Pixel*Frame) : 0.205
    Stream size : 997 MiB (87%)
    Color range : Limited
    Color primaries : BT.601 PAL
    Transfer characteristics : BT.470 System B, BT.470 System G
    Matrix coefficients : BT.601
    ID : 101 (0x65)
    Menu ID : 104 (0x68)
    Format : MPEG Audio
    Format version : Version 1
    Format profile : Layer 2
    Codec ID : 3
    Duration : 1 h 5 min
    Bit rate mode : Constant
    Bit rate : 192 kb/s
    Channel(s) : 2 channels
    Sampling rate : 48.0 kHz
    Compression mode : Lossy
    Delay relative to video : -120 ms
    Stream size : 90.2 MiB (8%)
    Language : English
    Download .torrent

    Download free and at maximum speed!

    How to Download? · What is a torrent? · Ratings and Limitations

    The site does not extend and does not store electronic(digital) versions of products, and only gives access to a reference catalogue created by users on torrent-files which contain only lists of the hash-sums, the earnest entreaty, with complaints(abuse) to access directly to the user. Files for an exchange on tracker are given by users of a site, and the administration does not bear the responsibility for their maintenance. The request to not fill in the files protected by copyrights, and also files of the illegal maintenance!

    [Profile] [PM]
    Display posts from previous:    
    Reply to topic

    The time now is: Today 17:53

    All times are GMT + 3 Hours

    You cannot post new topics in this forum
    You cannot reply to topics in this forum
    You cannot edit your posts in this forum
    You cannot delete your posts in this forum
    You cannot vote in polls in this forum
    You cannot attach files in this forum
    You cannot download files in this forum