BitTorrentTracker PerecTracker.org
BitTorrentTracker PerecTracker.org
    
Регистрация  ·  Вход
 
 · 
Забыли пароль?

  • Хочется жить / Желание жить / Chce sie zyc / Life Feels Good (Мацей Пепжица / Maciej Pieprzyca) [2013, Польша, Драма, BDRip] VO (Lenape)

    Ответить на тему
     
    Автор Сообщение

    Light

    Создавать темы 21-Авг-2016 14:54

           

    [Цитировать]

    Хочется жить / Желание жить / Chce sie zyc / Life Feels Good-Страна: Польша
    Жанр: Драма
    Год выпуска: 2013
    Продолжительность: 01:47:09-Перевод: Одноголосый закадровый [Lenape]
    Cубтитры: нет-Режиссер: Мацей Пепжица / Maciej Pieprzyca-В ролях: Давид Огродник, Камиль Ткач, Дорота Колак, Аркадиуш Якубик, Анна Нехребецка, Катажина Завадска, Хелена Суецка, Миколай Рознерски-Описание: Главный герой, Матеуш, болен ДЦП. Не говорит, не ходит, нет с ним контакта. Доктора поставили диагноз: до конца жизни Матеуш будет растением. Страшный диагноз, как оказалось, не до конца правильный. Никогда не сдаваться - так учил Матеуша отец.-Доп. информация: Субтитры, по которым делалась озвучка взял из этого релиза - спасибо bohdk-Sample | IMDB | КиноПоиск-Тип релиза: BDRip [исх. Life Feels Good 2013 1080p Blu-ray Remux AVC DTS-HD MA 5 1 - KRaLiMaRKo]
    Формат видео: AVI-Видео: 720x304 (2.37:1), 25 fps, XviD build 50, 1563 kbps avg, 0.29 bit/pixel
    Аудио: 48 kHz, AC3 Dolby Digital, 3/2 (L,C,R,l,r) + LFE ch, 384.00 kbps avg [Russian_VO]-Релиз группы:
    -

    MediaInfo

    General
    Complete name : D:\Мои релизы\Chce sie zyc_BDRip_VO_Lenape_RG_All_Films.avi
    Format : AVI
    Format/Info : Audio Video Interleave
    File size : 1.47 GiB
    Duration : 1h 47mn
    Overall bit rate : 1 957 Kbps
    Writing application : VirtualDubMod 1.5.10.3 | www.virtualdub-fr.org || (build 2550/release)
    Writing library : VirtualDubMod build 2550/release
    Video
    ID : 0
    Format : MPEG-4 Visual
    Format profile : Advanced Simple@L5
    Format settings, BVOP : Yes
    Format settings, QPel : No
    Format settings, GMC : No warppoints
    Format settings, Matrix : Custom
    Codec ID : XVID
    Codec ID/Hint : XviD
    Duration : 1h 47mn
    Bit rate : 1 564 Kbps
    Width : 720 pixels
    Height : 304 pixels
    Display aspect ratio : 2.35:1
    Frame rate : 25.000 fps
    Color space : YUV
    Chroma subsampling : 4:2:0
    Bit depth : 8 bits
    Scan type : Progressive
    Compression mode : Lossy
    Bits/(Pixel*Frame) : 0.286
    Stream size : 1.17 GiB (80%)
    Writing library : XviD 1.2.1 (UTC 2008-12-04)
    Audio
    ID : 1
    Format : AC-3
    Format/Info : Audio Coding 3
    Mode extension : CM (complete main)
    Codec ID : 2000
    Duration : 1h 47mn
    Bit rate mode : Constant
    Bit rate : 384 Kbps
    Channel(s) : 6 channels
    Channel positions : Front: L C R, Side: L R, LFE
    Sampling rate : 48.0 KHz
    Bit depth : 16 bits
    Compression mode : Lossy
    Stream size : 294 MiB (20%)
    Alignment : Split accross interleaves
    Interleave, duration : 40 ms (1.00 video frame)
    Interleave, preload duration : 500 ms

    Скриншоты

    -Торрент-файл перезалит 20.08.2016 по причине замены DVDRip BDRip
    Скачать .torrent

    Скачать торрент-файл бесплатно и на максимальной скорости!

    Как скачивать? · Что такое торрент? · Рейтинг и ограничения

    !ВНИМАНИЕ!
    Сайт не распространяет и не хранит электронные версии произведений, а занимается лишь лишь предоставлением доступа к создаваемому пользователями каталогу ссылок на торрент-файлы, которые содержат только списки хеш-сумм, убедительная просьба с жалобами обращаться напрямую к пользователю. Файлы для обмена на трекере предоставлены пользователями сайта, и администрация не несёт ответственности за их содержание. Просьба не заливать файлы, защищенные авторскими правами, а также файлы нелегального содержания!


    _________________
    [Профиль] [ЛС]
    Показать сообщения:    
    Ответить на тему

    Текущее время: Сегодня, в 04:35

    Часовой пояс: GMT + 2



    Вы не можете начинать темы
    Вы не можете отвечать на сообщения
    Вы не можете редактировать свои сообщения
    Вы не можете удалять свои сообщения
    Вы не можете голосовать в опросах
    Вы не можете прикреплять файлы к сообщениям
    Вы не можете скачивать файлы