BitTorrentTracker PerecTracker.org
BitTorrentTracker PerecTracker.org
    
Регистрация  ·  Вход
 
 · 
Забыли пароль?

  • [ATV3] Иллюзия обмана 2 / Now You See Me 2 (Джон М. Чу / Jon Chu ) [2016, США, Китай, Великобритания, Канада , Боевик, триллер, комедия, криминал, детектив, приключения, BDRip, HD (1080p)] DUB + Original + sub (eng)

    Ответить на тему
     
    Автор Сообщение

    rechyn

    Создавать темы 21-Авг-2016 06:30

           

    [Цитировать]

    Иллюзия обмана 2 / Now You See Me 2
    «Вы еще ничего не видели»
    6.984 / 10 6.90 / 10
    -Год выпуска: 2016
    Страна: США, Китай, Великобритания, Канада
    Жанр: Боевик, триллер, комедия, криминал, детектив, приключения
    Продолжительность: 02:09:29
    Перевод: Профессиональный (дублированный)
    Оригинальная аудиодорожка: Есть
    Cубтитры: Английские
    Режиссёр: Джон М. Чу
    Сценарий: Эд Соломон, Пит Чиарелли, Боаз Якин
    Продюсер: Бобби Коэн, Алекс Куртцман, Роберто Орси
    Оператор: Питер Диминг
    Композитор: Брайан Тайлер
    Художник: Шэрон Сеймур, Мартин Фоли, Стюарт Кернс
    Монтаж: Стэн Сэлфэс
    В ролях: Джесси Айзенберг, Марк Руффало, Вуди Харрельсон, Дэйв Франко, Дэниэл Рэдклифф, Лиззи Каплан, Джей Чоу, Санаа Лэтэн, Майкл Кейн, Морган Фриман
    Бюджет: $90 000 000
    Сборы в США: $64 954 129
    Сборы в мире: + $251 679 866 = $316 633 995
    Сборы в России: $16 682 096
    Мировая премьера: 2 июня 2016
    Премьера (РФ): 9 июня 2016, «Централ Партнершип»
    Описание: «Четыре всадника», команда лучших иллюзионистов мира, снова в сборе! Их «магия» стала еще совершеннее, а враги — опаснее. На сей раз им предстоит спасти свою репутацию и вывести на чистую воду жестокого техномагната…-Качество исходника: BDRemux http://perectracker.org/http://perectracker.org/viewtopic.php?t=5270907
    Качество: BDRip
    Тип: HD (1080p)
    Контейнер: M4V
    Видео: H.264, 1920x1080, 16:9, 10.2 Mb/s, 23.976 (24000/1001) FPS
    Аудио 1: Русский/Профессиональный (дублированный) , AAC / 2.0 / 160 kb/s / 48.0 kHz
    Аудио 2: Английский/Оригинальная дорожка (iTunes US), AAC / 2.0 / 160 kb/s / 48.0 kHz
    Аудио 3: Русский/Профессиональный (дублированный) , AC-3 / 5.1 / 640 kb/s / 48.0 kHz
    Аудио 4: Английский/Оригинальная дорожка (iTunes US), AC-3 / 5.1 / 384 kb/s / 48.0 kHz
    Субтитры: Английские полные
    -

    iTunes Meta Tags

    Sort Name: Now You See Me 2
    XID: Apple:vendor_id:2016-786958
    contentID: 1117669501
    Screenwriters: Эд Соломон, Пит Чиарелли, Боаз Якин
    Producers: Бобби Коэн, Алекс Куртцман, Роберто Орси
    Director: Джон М. Чу
    Cast: Джесси Айзенберг, Марк Руффало, Вуди Харрельсон, Дэйв Франко, Дэниэл Рэдклифф, Лиззи Каплан, Джей Чоу, Санаа Лэтэн, Майкл Кейн, Морган Фриман, Прохор Чеховской, Сергей Смирнов, Дмитрий Полонский, Михаил Тихонов, Николай Быстров
    Studio: Summit Entertainment
    Rating: 4
    Long Description: "Четыре всадника", команда лучших иллюзионистов мира, снова в сборе! Их "магия" стала еще совершеннее, а враги - опаснее. На сей раз им предстоит спасти свою репутацию и вывести на чистую воду жестокого техномагната...
    Description: "Четыре всадника", команда лучших иллюзионистов мира, снова в сборе! Их "магия" стала еще совершеннее, а враги - опаснее. На сей раз им предстоит спасти свою репутацию и вывести на чистую воду жестокого техномагната...
    Release Date: 2016-06-02T08:00:00Z
    Genre: Action & Adventure
    Artist: Jon M. Chu
    Name: Now You See Me 2

    MediaInfo

    General
    Complete name                            : /Users/imac/HandBrake/Now You See Me 2 (1080p HD).m4v
    Format                                   : MPEG-4
    Codec ID                                 : M4V  (M4V /M4A /mp42/isom)
    File size                                : 10.4 GiB
    Duration                                 : 2 h 9 min
    Overall bit rate mode                    : Variable
    Overall bit rate                         : 11.5 Mb/s
    Movie name                               : Now You See Me 2
    Performer                                : Jon M. Chu
    Director                                 : Джон М. Чу
    Actor                                    : Джесси Айзенберг / Марк Руффало / Вуди Харрельсон / Дэйв Франко / Дэниэл Рэдклифф / Лиззи Каплан / Джей Чоу / Санаа Лэтэн / Майкл Кейн / Морган Фриман / Прохор Чеховской / Сергей Смирнов / Дмитрий Полонский / Михаил Тихонов / Николай Быстров
    Screenplay by                            : Эд Соломон / Пит Чиарелли / Боаз Якин
    Producer                                 : Бобби Коэн / Алекс Куртцман / Роберто Орси
    Production studio                        : Summit Entertainment
    Genre                                    : Action & Adventure
    ContentType                              : Short Film
    Description                              : "Четыре всадника", команда лучших иллюзионистов мира, снова в сборе! Их "магия" стала еще совершеннее, а враги - опаснее. На сей раз им предстоит спасти свою репутацию и вывести на чистую воду жестокого техномагната...
    Recorded date                            : UTC 2016-06-02 08:00:00
    Encoded date                             : UTC 2016-08-20 22:43:32
    Tagged date                              : UTC 2016-08-20 22:46:02
    Cover                                    : Yes
    Rating                                   : None
    Title/Sort                               : Now You See Me 2
    LongDescription                          : "Четыре всадника", команда лучших иллюзионистов мира, снова в сборе! Их "магия" стала еще совершеннее, а враги - опаснее. На сей раз им предстоит спасти свою репутацию и вывести на чистую воду жестокого техномагната...
    AppleStoreCatalogID                      : 1117669501
    Vendor                                   : Apple:vendor_id:2016-786958
    ContentRating                            : mpaa|PG-13|300|
    Video #1
    ID                                       : 1
    Format                                   : AVC
    Format/Info                              : Advanced Video Codec
    Format profile                           : High@L4
    Format settings, CABAC                   : Yes
    Format settings, ReFrames                : 4 frames
    Codec ID                                 : avc1
    Codec ID/Info                            : Advanced Video Coding
    Duration                                 : 2 h 9 min
    Source duration                          : 2 h 9 min
    Bit rate                                 : 10.2 Mb/s
    Width                                    : 1 920 pixels
    Height                                   : 1 080 pixels
    Display aspect ratio                     : 16:9
    Frame rate mode                          : Variable
    Frame rate                               : 23.976 (24000/1001) FPS
    Minimum frame rate                       : 23.974 FPS
    Maximum frame rate                       : 23.981 FPS
    Color space                              : YUV
    Chroma subsampling                       : 4:2:0
    Bit depth                                : 8 bits
    Scan type                                : Progressive
    Bits/(Pixel*Frame)                       : 0.205
    Stream size                              : 9.21 GiB (88%)
    Source stream size                       : 9.21 GiB (88%)
    Title                                    : Main Program
    Writing library                          : x264 core 142 r2479 dd79a61
    Encoding settings                        : cabac=1 / ref=4 / deblock=1:-2:-2 / analyse=0x3:0x133 / me=umh / subme=10 / psy=1 / psy_rd=1.00:0.15 / mixed_ref=1 / me_range=32 / chroma_me=1 / trellis=2 / 8x8dct=1 / cqm=0 / deadzone=21,11 / fast_pskip=0 / chroma_qp_offset=-3 / threads=36 / lookahead_threads=8 / sliced_threads=0 / nr=0 / decimate=0 / interlaced=0 / bluray_compat=0 / constrained_intra=0 / bframes=16 / b_pyramid=2 / b_adapt=2 / b_bias=0 / direct=3 / weightb=1 / open_gop=0 / weightp=2 / keyint=240 / keyint_min=24 / scenecut=40 / intra_refresh=0 / rc_lookahead=60 / rc=2pass / mbtree=1 / bitrate=10200 / ratetol=1.0 / qcomp=0.70 / qpmin=0 / qpmax=69 / qpstep=4 / cplxblur=20.0 / qblur=0.5 / vbv_maxrate=25000 / vbv_bufsize=25000 / nal_hrd=none / filler=0 / ip_ratio=1.40 / aq=1:1.00
    Language                                 : English
    Encoded date                             : UTC 2016-08-20 22:43:32
    Tagged date                              : UTC 2016-08-20 22:44:02
    Color range                              : Limited
    Color primaries                          : BT.709
    Transfer characteristics                 : BT.709
    Matrix coefficients                      : BT.709
    Menus                                    : 7,8
    Video #2
    ID                                       : 8
    Format                                   : JPEG
    Codec ID                                 : jpeg
    Duration                                 : 2 h 9 min
    Bit rate mode                            : Variable
    Bit rate                                 : 1 077 b/s
    Width                                    : 640 pixels
    Height                                   : 360 pixels
    Display aspect ratio                     : 16:9
    Frame rate mode                          : Constant
    Frame rate                               : 0.003 FPS
    Color space                              : YUV
    Chroma subsampling                       : 4:2:0
    Bit depth                                : 8 bits
    Compression mode                         : Lossy
    Bits/(Pixel*Frame)                       : 1.558
    Stream size                              : 1.11 MiB (0%)
    Title                                    : Chapter Images
    Language                                 : English
    Default                                  : No
    Encoded date                             : UTC 2016-08-20 22:44:15
    Tagged date                              : UTC 2016-08-20 22:44:16
    Menu For                                 : 1
    Audio #1
    ID                                       : 2
    Format                                   : AAC
    Format/Info                              : Advanced Audio Codec
    Format profile                           : LC
    Codec ID                                 : 40
    Duration                                 : 2 h 9 min
    Bit rate mode                            : Variable
    Bit rate                                 : 158 kb/s
    Maximum bit rate                         : 218 kb/s
    Channel(s)                               : 2 channels
    Channel positions                        : Front: L R
    Sampling rate                            : 48.0 kHz
    Frame rate                               : 46.875 FPS (1024 spf)
    Compression mode                         : Lossy
    Stream size                              : 147 MiB (1%)
    Title                                    : Russian Stereo
    Language                                 : Russian
    Default                                  : Yes
    Alternate group                          : 1
    Encoded date                             : UTC 2016-08-20 22:43:32
    Tagged date                              : UTC 2016-08-20 22:43:44
    Fallback From                            : 4
    Menus                                    : 7
    Audio #2
    ID                                       : 3
    Format                                   : AAC
    Format/Info                              : Advanced Audio Codec
    Format profile                           : LC
    Codec ID                                 : 40
    Duration                                 : 2 h 9 min
    Bit rate mode                            : Variable
    Bit rate                                 : 158 kb/s
    Maximum bit rate                         : 225 kb/s
    Channel(s)                               : 2 channels
    Channel positions                        : Front: L R
    Sampling rate                            : 48.0 kHz
    Frame rate                               : 46.875 FPS (1024 spf)
    Compression mode                         : Lossy
    Stream size                              : 146 MiB (1%)
    Title                                    : English Stereo
    Language                                 : English
    Default                                  : No
    Alternate group                          : 1
    Encoded date                             : UTC 2016-08-20 22:43:32
    Tagged date                              : UTC 2016-08-20 22:43:50
    Fallback From                            : 5
    Audio #3
    ID                                       : 4
    Format                                   : AC-3
    Format/Info                              : Audio Coding 3
    Mode extension                           : CM (complete main)
    Format settings, Endianness              : Big
    Codec ID                                 : ac-3
    Duration                                 : 2 h 9 min
    Bit rate mode                            : Constant
    Bit rate                                 : 640 kb/s
    Channel(s)                               : 6 channels
    Channel positions                        : Front: L C R, Side: L R, LFE
    Sampling rate                            : 48.0 kHz
    Frame rate                               : 31.250 FPS (1536 spf)
    Bit depth                                : 16 bits
    Compression mode                         : Lossy
    Stream size                              : 593 MiB (6%)
    Title                                    : Russian DD 5.1
    Language                                 : Russian
    Default                                  : Inherited From: 2
    Alternate group                          : 1
    Encoded date                             : UTC 2016-08-20 22:43:32
    Tagged date                              : UTC 2016-08-20 22:43:41
    Fallback To                              : 2
    Audio #4
    ID                                       : 5
    Format                                   : AC-3
    Format/Info                              : Audio Coding 3
    Mode extension                           : CM (complete main)
    Format settings, Endianness              : Big
    Codec ID                                 : ac-3
    Duration                                 : 2 h 9 min
    Bit rate mode                            : Constant
    Bit rate                                 : 384 kb/s
    Channel(s)                               : 6 channels
    Channel positions                        : Front: L C R, Side: L R, LFE
    Sampling rate                            : 48.0 kHz
    Frame rate                               : 31.250 FPS (1536 spf)
    Bit depth                                : 16 bits
    Compression mode                         : Lossy
    Stream size                              : 354 MiB (3%)
    Title                                    : English DD 5.1
    Language                                 : English
    Default                                  : No
    Alternate group                          : 1
    Encoded date                             : UTC 2016-08-20 22:43:32
    Tagged date                              : UTC 2016-08-20 22:43:41
    Fallback To                              : 3
    Text
    ID                                       : 6
    Format                                   : Timed Text
    Muxing mode                              : sbtl
    Codec ID                                 : tx3g
    Duration                                 : 2 h 0 min
    Bit rate mode                            : Variable
    Bit rate                                 : 91 b/s
    Stream size                              : 80.0 KiB (0%)
    Title                                    : English full
    Language                                 : English
    Default                                  : Yes
    Forced                                   : No
    Alternate group                          : 2
    Encoded date                             : UTC 2016-08-20 22:43:32
    Tagged date                              : UTC 2016-08-20 22:43:33
    Menu #1
    00:00:00.000                             : Chapter 1
    00:04:57.047                             : Chapter 2
    00:09:53.009                             : Chapter 3
    00:15:00.024                             : Chapter 4
    00:19:58.239                             : Chapter 5
    00:24:55.285                             : Chapter 6
    00:29:59.506                             : Chapter 7
    00:34:57.012                             : Chapter 8
    00:39:56.728                             : Chapter 9
    00:45:00.031                             : Chapter 10
    00:49:59.955                             : Chapter 11
    00:54:56.376                             : Chapter 12
    00:59:57.344                             : Chapter 13
    01:04:51.930                             : Chapter 14
    01:09:59.070                             : Chapter 15
    01:14:54.865                             : Chapter 16
    01:19:59.837                             : Chapter 17
    01:24:58.719                             : Chapter 18
    01:30:00.020                             : Chapter 19
    01:34:59.777                             : Chapter 20
    01:39:57.825                             : Chapter 21
    01:44:51.202                             : Chapter 22
    01:49:58.383                             : Chapter 23
    01:54:54.971                             : Chapter 24
    01:59:58.525                             : Chapter 25
    02:04:58.408                             : Chapter 26
    Menu #2
    ID                                       : 7
    Codec ID                                 : text
    Duration                                 : 2 h 9 min
    Language                                 : English
    Encoded date                             : UTC 2016-08-20 22:44:02
    Tagged date                              : UTC 2016-08-20 22:44:02
    Menu For                                 : 2,1
    00:00:00.000                             : Chapter 1
    00:04:57.047                             : Chapter 2
    00:09:53.009                             : Chapter 3
    00:15:00.024                             : Chapter 4
    00:19:58.239                             : Chapter 5
    00:24:55.285                             : Chapter 6
    00:29:59.506                             : Chapter 7
    00:34:57.012                             : Chapter 8
    00:39:56.728                             : Chapter 9
    00:45:00.031                             : Chapter 10
    00:49:59.955                             : Chapter 11
    00:54:56.376                             : Chapter 12
    00:59:57.344                             : Chapter 13
    01:04:51.930                             : Chapter 14
    01:09:59.070                             : Chapter 15
    01:14:54.865                             : Chapter 16
    01:19:59.837                             : Chapter 17
    01:24:58.719                             : Chapter 18
    01:30:00.020                             : Chapter 19
    01:34:59.777                             : Chapter 20
    01:39:57.825                             : Chapter 21
    01:44:51.202                             : Chapter 22
    01:49:58.383                             : Chapter 23
    01:54:54.971                             : Chapter 24
    01:59:58.525                             : Chapter 25
    02:04:58.408                             : Chapter 26
    Bit rate mode                            : VBR

    x264 лог

    x264 [info]: frame I:1290  Avg QP:19.73  size:222031
    x264 [info]: frame P:44136 Avg QP:22.57  size: 82054
    x264 [info]: frame B:140866 Avg QP:23.29  size: 42493
    x264 [info]: consecutive B-frames:  3.3%  4.5% 13.8% 15.3% 14.8% 34.9%  6.4%  1.4%  4.6%  0.1%  0.1%  0.1%  0.1%  0.1%  0.1%  0.1%  0.4%
    x264 [info]: mb I  I16..4: 11.8% 70.3% 17.8%
    x264 [info]: mb P  I16..4:  2.5% 14.7%  1.0%  P16..4: 50.4% 13.7%  9.3%  0.1%  0.0%    skip: 8.2%
    x264 [info]: mb B  I16..4:  0.1%  2.4%  0.1%  B16..8: 47.1%  8.5%  2.0%  direct: 8.4%  skip:31.4%  L0:44.3% L1:48.9% BI: 6.7%
    x264 [info]: 8x8 transform intra:82.9% inter:68.3%
    x264 [info]: direct mvs  spatial:98.0% temporal:2.0%
    x264 [info]: coded y,uvDC,uvAC intra: 84.6% 84.9% 61.9% inter: 32.9% 40.1% 13.8%
    x264 [info]: i16 v,h,dc,p: 35% 18% 16% 31%
    x264 [info]: i8 v,h,dc,ddl,ddr,vr,hd,vl,hu: 10%  7% 11% 10% 14% 13% 13% 11% 12%
    x264 [info]: i4 v,h,dc,ddl,ddr,vr,hd,vl,hu: 11%  8%  3% 10% 15% 14% 15% 11% 13%
    x264 [info]: i8c dc,h,v,p: 55% 17% 15% 13%
    x264 [info]: Weighted P-Frames: Y:3.3% UV:1.9%
    x264 [info]: ref P L0: 48.5% 10.3% 26.8% 12.3%  2.0%  0.1%
    x264 [info]: ref B L0: 81.2% 15.5%  3.3%
    x264 [info]: ref B L1: 89.0% 11.0%
    x264 [info]: kb/s:10186.67

    Скриншоты

    -

    Релиз подготовлен для просмотра на Apple TV, iPad, iPhone, iPod Touch.
    Для просмотра данного релиза на компьютере с ОС Windows рекомендуется использовать VLC media player
    Скачать .torrent

    Скачать торрент-файл бесплатно и на максимальной скорости!

    Как скачивать? · Что такое торрент? · Рейтинг и ограничения

    !ВНИМАНИЕ!
    Сайт не распространяет и не хранит электронные версии произведений, а занимается лишь лишь предоставлением доступа к создаваемому пользователями каталогу ссылок на торрент-файлы, которые содержат только списки хеш-сумм, убедительная просьба с жалобами обращаться напрямую к пользователю. Файлы для обмена на трекере предоставлены пользователями сайта, и администрация не несёт ответственности за их содержание. Просьба не заливать файлы, защищенные авторскими правами, а также файлы нелегального содержания!


    _________________
    [Профиль] [ЛС]
    Показать сообщения:    
    Ответить на тему

    Текущее время: Сегодня, в 18:01

    Часовой пояс: GMT + 2



    Вы не можете начинать темы
    Вы не можете отвечать на сообщения
    Вы не можете редактировать свои сообщения
    Вы не можете удалять свои сообщения
    Вы не можете голосовать в опросах
    Вы не можете прикреплять файлы к сообщениям
    Вы не можете скачивать файлы