BitTorrentTracker PerecTracker.org
BitTorrentTracker PerecTracker.org
    
Регистрация  ·  Вход
 
 · 
Забыли пароль?

  • Славные парни / The Nice Guys (Шейн Блэк / Shane Black) [2016, США, Великобритания, криминал, комедия, BDRemux 1080p] Dub (iTunes) + Sub Rus, Eng + Original Eng

    Ответить на тему
     
    Автор Сообщение

    Light

    Создавать темы 20-Авг-2016 22:20

           

    [Цитировать]

    Славные парни / The Nice Guys
    Страна: США, Великобритания
    Жанр: криминал, комедия
    Год выпуска: 2016
    Продолжительность: 01:55:57
    Перевод: Профессиональный (дублированный) - iTunes
    Cубтитры: русские (полные, ненорматив. лекcика), английские (полные, SDH)
    Оригинальная аудиодорожка: английский-Режиссер: Шейн Блэк / Shane Black-В ролях: Райан Гослинг, Ким Бейсингер, Расселл Кроу, Энгаури Райс, Мэтт Бомер, Маргарет Куэлли, Йайа ДаКоста, Кит Дэвид, Бо Напп, Лоис Смит-Описание: Что может объединять два совершенно разных человека - частного сыщика Марчи Холланда, и наёмного вышибалу Хили Джексона? Лос-Анджелес 1970 год, два кажется несвязанных между собой дела, которые взялись расследовать эти два разных по профессиям человека, пропажа девушки, и смерть порнозвезды. В ходе расследования, нити этих дел приведут к шокирующему результату, о заговоре в высших эшелонов власти.-Качество видео: BDRemux
    Формат видео: MKV
    Видео: 1920x1080 at 23.976 fps, MPEG-4 AVC, ~27646 kbps avg
    Аудио: Russian: 48 kHz, AC3, 3/2 (L,C,R,l,r) + LFE ch, ~384.00 kbps avg |Дубляж, iTunes Russia|
    Аудио: DTS-HD Master Audio English 3721 kbps 5.1 / 48 kHz / 3721 kbps / 24-bit (DTS Core: 5.1 / 48 kHz / 1509 kbps / 24-bit)
    Аудио: English: 48 kHz, AC3, 3/2 (L,C,R,l,r) + LFE ch, ~640.00 kbps avg |Descriptive|--

    MI

    Format                      : Matroska
    Format version              : Version 2
    File size                   : 26.2 GiB
    Duration                    : 1h 55mn
    Overall bit rate mode       : Variable
    Overall bit rate            : 32.4 Mbps
    Encoded date                : UTC 2016-08-12 14:21:43
    Writing application         : mkvmerge v4.2.0 ('No Talking') сборка от Jul 28 2010 18:38:23
    Writing library             : libebml v1.0.0 + libmatroska v1.0.0
    Video
    ID                          : 1
    Format                      : AVC
    Format/Info                 : Advanced Video Codec
    Format profile              : High@L4.1
    Format settings, CABAC      : Yes
    Format settings, ReFrames   : 2 frames
    Format settings, GOP        : M=1, N=10
    Codec ID                    : V_MPEG4/ISO/AVC
    Duration                    : 1h 55mn
    Bit rate mode               : Variable
    Width                       : 1 920 pixels
    Height                      : 1 080 pixels
    Display aspect ratio        : 16:9
    Frame rate mode             : Constant
    Frame rate                  : 23.976 (24000/1001) fps
    Color space                 : YUV
    Chroma subsampling          : 4:2:0
    Bit depth                   : 8 bits
    Scan type                   : Progressive
    Default                     : Yes
    Forced                      : No
    Audio #1
    ID                          : 2
    Format                      : AC-3
    Format/Info                 : Audio Coding 3
    Mode extension              : CM (complete main)
    Format settings, Endianness : Big
    Codec ID                    : A_AC3
    Duration                    : 1h 55mn
    Bit rate mode               : Constant
    Bit rate                    : 384 Kbps
    Channel(s)                  : 6 channels
    Channel positions           : Front: L C R, Side: L R, LFE
    Sampling rate               : 48.0 KHz
    Frame rate                  : 31.250 fps (1536 spf)
    Compression mode            : Lossy
    Stream size                 : 318 MiB (1%)
    Language                    : Russian
    Default                     : Yes
    Forced                      : No
    Audio #2
    ID                          : 3
    Format                      : DTS
    Format/Info                 : Digital Theater Systems
    Format profile              : MA / Core
    Mode                        : 16
    Format settings, Endianness : Big
    Codec ID                    : A_DTS
    Duration                    : 1h 55mn
    Bit rate mode               : Variable / Constant
    Bit rate                    : Unknown / 1 509 Kbps
    Channel(s)                  : 6 channels
    Channel positions           : Front: L C R, Side: L R, LFE
    Sampling rate               : 48.0 KHz
    Frame rate                  : 93.750 fps (512 spf)
    Bit depth                   : 24 bits
    Compression mode            : Lossless / Lossy
    Default                     : No
    Forced                      : No
    Audio #3
    ID                          : 4
    Format                      : AC-3
    Format/Info                 : Audio Coding 3
    Mode extension              : CM (complete main)
    Format settings, Endianness : Big
    Codec ID                    : A_AC3
    Duration                    : 1h 55mn
    Bit rate mode               : Constant
    Bit rate                    : 640 Kbps
    Channel(s)                  : 6 channels
    Channel positions           : Front: L C R, Side: L R, LFE
    Sampling rate               : 48.0 KHz
    Frame rate                  : 31.250 fps (1536 spf)
    Compression mode            : Lossy
    Stream size                 : 531 MiB (2%)
    Language                    : English
    Default                     : No
    Forced                      : No
    Text #1
    ID                          : 5
    Format                      : UTF-8
    Codec ID                    : S_TEXT/UTF8
    Codec ID/Info               : UTF-8 Plain Text
    Language                    : Russian
    Default                     : Yes
    Forced                      : No
    Text #2
    ID                          : 6
    Format                      : UTF-8
    Codec ID                    : S_TEXT/UTF8
    Codec ID/Info               : UTF-8 Plain Text
    Language                    : English
    Default                     : No
    Forced                      : No
    Text #3
    ID                          : 7
    Format                      : UTF-8
    Codec ID                    : S_TEXT/UTF8
    Codec ID/Info               : UTF-8 Plain Text
    Language                    : English
    Default                     : No
    Forced                      : No

    Скриншоты

    Скачать .torrent

    Скачать торрент-файл бесплатно и на максимальной скорости!

    Как скачивать? · Что такое торрент? · Рейтинг и ограничения

    !ВНИМАНИЕ!
    Сайт не распространяет и не хранит электронные версии произведений, а занимается лишь лишь предоставлением доступа к создаваемому пользователями каталогу ссылок на торрент-файлы, которые содержат только списки хеш-сумм, убедительная просьба с жалобами обращаться напрямую к пользователю. Файлы для обмена на трекере предоставлены пользователями сайта, и администрация не несёт ответственности за их содержание. Просьба не заливать файлы, защищенные авторскими правами, а также файлы нелегального содержания!


    _________________
    [Профиль] [ЛС]
    Показать сообщения:    
    Ответить на тему

    Текущее время: Сегодня, в 08:11

    Часовой пояс: GMT + 2



    Вы не можете начинать темы
    Вы не можете отвечать на сообщения
    Вы не можете редактировать свои сообщения
    Вы не можете удалять свои сообщения
    Вы не можете голосовать в опросах
    Вы не можете прикреплять файлы к сообщениям
    Вы не можете скачивать файлы