BitTorrentTracker PerecTracker.org
BitTorrentTracker PerecTracker.org
    
Регистрация  ·  Вход
 
 · 
Забыли пароль?

  • Я люблю свою жизнь / J\'adore ma vie! (Стефан Курк / Stephane Kurc) [2012, Франция, комедия, DVB] Original (Fre) + Sub (Rus, Eng, Fre, Deu)

    Ответить на тему
     
    Автор Сообщение

    Light

    Создавать темы 20-Авг-2016 22:20

           

    [Цитировать]

    Я люблю свою жизнь
    J'adore ma vie!-Страна: Франция
    Жанр: комедия
    Год выпуска: 2012
    Продолжительность: 01:31:18
    Перевод: Субтитры (перевод М. Кузиной, Éclair Group)
    Cубтитры: русские, английские, французские, немецкие, нидерландские
    Оригинальная аудиодорожка: французский
    Режиссер: Стефан Курк / Stéphane KurcВ ролях: Армель Дойч / Armelle Deutsch (Angélique), Тома Жуанне / Thomas Jouannet (Damien), Аннелиз Эсм / Annelise Hesme (Sophia), Матиас Млекюз / Mathias Mlekuz (Patrick), Жакки Берруайе / Jackie Berroyer (Le Psy)
    Описание: Анжелика очень любит детей, ей 36 лет, но своего ребенка у нее еще нет. А вот у ее нынешнего приятеля Дамьена после развода остались два озорника, с которыми она и проводит почти все свободное время. Однако неожиданно выясняется, что кроме аллергии на клубнику у Анжелики еще редкая генетическая аномалия - аллергия на детей, ее организм все больше и больше начинает испытывать дискомфорт. Чтобы избежать дальнейших осложнений Анжелика должна кардинальным образом изменить свою жизнь…
    Доп. информация: Hot Bird (13.0°E) TV5MONDE Europe DVB-S
    Участник Festival des Créations télévisuelles de Luchon 2013.

    Качество видео: DVB
    Формат видео: MKV
    Видео: MPEG Video 2, 720x576@1024x576 (16:9), 25 fps, ~2927 kbps avg, 0.282 bit/pixel
    Аудио: MPEG Audio 2, 2 ch, 48 kHz, 192 kbps - французский
    Формат субтитров: softsub (SRT)

    Пример субтитров

    100:00:03,987 --> 00:00:05,586Ты 3 раза переодевалась,
    200:00:05,586 --> 00:00:08,586а Том проспал...И ваша мама тут ни при чем.
    300:00:08,864 --> 00:00:10,658Найди мне одинаковые
    400:00:10,658 --> 00:00:12,665кроссовки!-Мы опаздываем.
    500:00:12,665 --> 00:00:14,232Так даже оригинально.
    600:00:14,232 --> 00:00:15,504Я ЛЮБЛЮ СВОЮ ЖИЗНЬ
    700:00:15,504 --> 00:00:18,101-Мама бы нашла!-Ты это заметила?
    800:00:18,101 --> 00:00:19,903-Нет.-Мне всего 9 лет.
    900:00:19,903 --> 00:00:21,742А твоему брату 6.
    1000:00:21,742 --> 00:00:24,552Учиться читатьможно и в разных кроссовках.
    1100:00:24,552 --> 00:00:26,621-Глупости!-Я уже умею читать.
    1200:00:26,621 --> 00:00:29,504Вот видишь?Значит, я права.
    1300:00:29,504 --> 00:00:32,504Из школы вас заберу я.Вкусный полдник гарантирую!
    1400:00:34,741 --> 00:00:36,023Блины испечешь?
    1500:00:36,023 --> 00:00:37,790-Ты идешь в школу?-Да.
    1600:00:37,790 --> 00:00:39,588Разрешишь ногти накрасить?
    1700:00:39,588 --> 00:00:41,421Ладно.Дай пять! Дай пять!
    1800:00:41,421 --> 00:00:43,464Поцелуйчик!
    1900:00:43,464 --> 00:00:45,744Бегите!
    2000:00:45,744 --> 00:00:48,345В огороде выращивают помидоры,

    MediaInfo

    GeneralUnique ID : 190726756905164739394284486661448114177 (0x8F7CA321A21A91EB8553F95A12BBA001)Complete name : [apreder]J'adore_ma_vie(2012)DVB.mkvFormat : MatroskaFormat version : Version 2File size : 2.03 GiBDuration : 1 h 31 minOverall bit rate : 3 183 kb/sMovie name : J'adore ma vie!Released date : 2013-05-01Encoded date : UTC 2016-08-20 17:28:42Writing application : mkvmerge v9.3.1 ('Mask Machine') 64bitWriting library : libebml v1.3.4 + libmatroska v1.4.5Cover : YesAttachments : cover.png / small_cover.pngACTOR : Armelle Deutsch, Thomas Jouannet, Annelise HesmeDIRECTOR : Stéphane KurcGENRE : ComedyIMDB : tt2855304KEYWORDS : perectracker.orgLAW_RATING : 16+
    VideoID : 1Format : MPEG VideoFormat version : Version 2Format profile : Main@MainFormat settings, BVOP : YesFormat settings, Matrix : CustomFormat settings, GOP : VariableFormat settings, picture structure : FrameCodec ID : V_MPEG2Codec ID/Info : MPEG 1 or 2 VideoDuration : 1 h 31 minBit rate : 2 927 kb/sMaximum bit rate : 3 200 kb/sWidth : 720 pixelsHeight : 576 pixelsDisplay aspect ratio : 16:9Frame rate mode : ConstantFrame rate : 25.000 FPSStandard : PALColor space : YUVChroma subsampling : 4:2:0Bit depth : 8 bitsScan type : InterlacedScan order : Top Field FirstCompression mode : LossyBits/(Pixel*Frame) : 0.282Stream size : 1.87 GiB (92%)Default : YesForced : No
    AudioID : 2Format : MPEG AudioFormat version : Version 1Format profile : Layer 2Mode : Joint stereoMode extension : Intensity Stereo + MS StereoCodec ID : A_MPEG/L2Codec ID/Hint : MP2Duration : 1 h 31 minBit rate mode : ConstantBit rate : 192 kb/sChannel(s) : 2 channelsSampling rate : 48.0 kHzCompression mode : LossyStream size : 125 MiB (6%)Language : FrenchDefault : YesForced : No
    Text #1ID : 3Format : UTF-8Codec ID : S_TEXT/UTF8Codec ID/Info : UTF-8 Plain TextLanguage : RussianDefault : NoForced : No
    Text #2ID : 4Format : UTF-8Codec ID : S_TEXT/UTF8Codec ID/Info : UTF-8 Plain TextLanguage : EnglishDefault : NoForced : No
    Text #3ID : 5Format : UTF-8Codec ID : S_TEXT/UTF8Codec ID/Info : UTF-8 Plain TextLanguage : FrenchDefault : NoForced : No
    Text #4ID : 6Format : UTF-8Codec ID : S_TEXT/UTF8Codec ID/Info : UTF-8 Plain TextLanguage : GermanDefault : NoForced : No
    Text #5ID : 7Format : UTF-8Codec ID : S_TEXT/UTF8Codec ID/Info : UTF-8 Plain TextLanguage : DutchDefault : NoForced : No

    Скриншот c названием фильма

    Скриншоты

    Резервные скриншоты


    -[1'255]
    Скачать .torrent

    Скачать торрент-файл бесплатно и на максимальной скорости!

    Как скачивать? · Что такое торрент? · Рейтинг и ограничения

    !ВНИМАНИЕ!
    Сайт не распространяет и не хранит электронные версии произведений, а занимается лишь лишь предоставлением доступа к создаваемому пользователями каталогу ссылок на торрент-файлы, которые содержат только списки хеш-сумм, убедительная просьба с жалобами обращаться напрямую к пользователю. Файлы для обмена на трекере предоставлены пользователями сайта, и администрация не несёт ответственности за их содержание. Просьба не заливать файлы, защищенные авторскими правами, а также файлы нелегального содержания!


    _________________
    [Профиль] [ЛС]
    Показать сообщения:    
    Ответить на тему

    Текущее время: Сегодня, в 22:15

    Часовой пояс: GMT + 2



    Вы не можете начинать темы
    Вы не можете отвечать на сообщения
    Вы не можете редактировать свои сообщения
    Вы не можете удалять свои сообщения
    Вы не можете голосовать в опросах
    Вы не можете прикреплять файлы к сообщениям
    Вы не можете скачивать файлы