BitTorrentTracker PerecTracker.org
BitTorrentTracker PerecTracker.org
    
Регистрация  ·  Вход
 
 · 
Забыли пароль?

  • План Мэгги / Maggie\'s Plan (Ребекка Миллер / Rebecca Miller) [2015, США, Драма, мелодрама, комедия, BDRip 1080p] MVO + Sub Rus, Eng + Original Eng

    Ответить на тему
     
    Автор Сообщение

    Light

    Создавать темы 20-Авг-2016 18:08

           

    [Цитировать]

    План Мэгги / Maggie's Plan
    Страна: США
    Жанр: Драма, мелодрама, комедия
    Год выпуска: 2015
    Продолжительность: 01:38:52
    Перевод: Профессиональный (многоголосый закадровый)
    Cубтитры: Russian(For, Full), English(For, Full, SDH), English: Commentary with Director Rebecca Miller (for, Full), French
    Оригинальная аудиодорожка: английский-Режиссер: Ребекка Миллер / Rebecca Miller-В ролях: Трэвис Фиммел, Итэн Хоук, Джулианна Мур, Билл Хейдер, Грета Гервиг, Майя Рудольф, Уоллес Шон, Мина Сандвол, Кэтлин Ханна, Алекс Морф-Описание: Мэгги хочет стать матерью и планирует прибегнуть к искусственному оплодотворению, но её планы нарушаются, когда она знакомится с антропологом Джоном, состоящим в несчастливом браке с Жоржеттой. Мэгги выходит замуж за Джона, но через какое-то время начинает чувствовать себя несчастной, и у неё возникает новый план.-Релиз:
    | Рип от SbR-Качество видео: BDRip
    Формат видео: MKV
    Видео: 1918x1040 at 23.976 fps, x264@L4.1, ~12498 kbps avg
    Аудио 1: Russian: 48 kHz, AC3, 3/2 (L,C,R,l,r) + LFE ch, ~640 kbps avg |Многоголосый закадровый|
    Аудио 2: English: 48 kHz, DTS 5.1, ~1509 kbps avg
    Аудио 3: English: 48 kHz, AAC, 2.0 ch, ~69 kbps avg |Commentary with Director Rebecca Miller|--Цитата:
    Цитата:

    • Сохранены оригинальные главы как на Blu-ray.

    MediaInfo

    Format                      : Matroska
    Format version              : Version 4 / Version 2
    File size                   : 10.2 GiB
    Duration                    : 1h 38mn
    Overall bit rate            : 14.7 Mbps
    Encoded date                : UTC 2016-08-09 05:57:12
    Writing application         : mkvmerge v8.3.0 ('Over the Horizon') 32bit
    Writing library             : libebml v1.3.1 + libmatroska v1.4.2
    Cover                       : Yes
    Attachments                 : cover.jpg
    Video
    ID                          : 1
    Format                      : AVC
    Format/Info                 : Advanced Video Codec
    Format profile              : High@L4.1
    Format settings, CABAC      : Yes
    Format settings, ReFrames   : 4 frames
    Codec ID                    : V_MPEG4/ISO/AVC
    Duration                    : 1h 38mn
    Bit rate                    : 12.5 Mbps
    Width                       : 1 918 pixels
    Height                      : 1 040 pixels
    Display aspect ratio        : 1.85:1
    Frame rate mode             : Constant
    Frame rate                  : 23.976 (23976/1000) fps
    Color space                 : YUV
    Chroma subsampling          : 4:2:0
    Bit depth                   : 8 bits
    Scan type                   : Progressive
    Bits/(Pixel*Frame)          : 0.261
    Stream size                 : 8.63 GiB (85%)
    Writing library             : x264 core 148 r2705+54 9f484c1 t_mod_Custom [8-bit@all X86_64]
    Encoding settings           : cabac=1 / ref=4 / deblock=1:-3:-3 / analyse=0x3:0x133 / me=umh / subme=10 / psy=1 / fade_compensate=0.00 / psy_rd=1.05:0.05 / mixed_ref=1 / me_range=24 / chroma_me=1 / trellis=2 / 8x8dct=1 / cqm=0 / deadzone=21,11 / fast_pskip=0 / chroma_qp_offset=-3 / threads=6 / lookahead_threads=1 / sliced_threads=0 / nr=0 / decimate=1 / interlaced=0 / bluray_compat=0 / constrained_intra=0 / fgo=0 / bframes=8 / b_pyramid=2 / b_adapt=2 / b_bias=0 / direct=3 / weightb=1 / open_gop=0 / weightp=2 / keyint=250 / keyint_min=23 / scenecut=40 / intra_refresh=0 / rc=2pass / mbtree=0 / bitrate=12500 / ratetol=1.0 / qcomp=0.75 / qpmin=0:0:0 / qpmax=69:69:69 / qpstep=4 / cplxblur=20.0 / qblur=0.5 / ip_ratio=1.40 / pb_ratio=1.30 / aq=1:0.70 / aq-sensitivity=10.00 / aq-factor=1.00:1.00:1.00 / aq2=1:0.60 / aq2-sensitivity=15.00 / aq2-factor=1.00:1.00:1.00 / aq3=1:[0.50:0.50]:[0.50:0.50]:[0.50:0.50]:[0.50:0.50] / aq3-sensitivity=10.00 / aq3-factor=[1.00:1.00]:[1.00:1.00]:[1.00:1.00] / aq3-boundary=192:64:24
    Language                    : English
    Default                     : Yes
    Forced                      : No
    Color range                 : Limited
    Matrix coefficients         : BT.709
    Audio #1
    ID                          : 2
    Format                      : AC-3
    Format/Info                 : Audio Coding 3
    Mode extension              : CM (complete main)
    Format settings, Endianness : Big
    Codec ID                    : A_AC3
    Duration                    : 1h 38mn
    Bit rate mode               : Constant
    Bit rate                    : 640 Kbps
    Channel(s)                  : 6 channels
    Channel positions           : Front: L C R, Side: L R, LFE
    Sampling rate               : 48.0 KHz
    Frame rate                  : 31.250 fps (1536 spf)
    Compression mode            : Lossy
    Stream size                 : 453 MiB (4%)
    Title                       : Многоголосый закадровый
    Language                    : Russian
    Default                     : Yes
    Forced                      : No
    Audio #2
    ID                          : 3
    Format                      : DTS
    Format/Info                 : Digital Theater Systems
    Mode                        : 16
    Format settings, Endianness : Big
    Codec ID                    : A_DTS
    Duration                    : 1h 38mn
    Bit rate mode               : Constant
    Bit rate                    : 1 509 Kbps
    Channel(s)                  : 6 channels
    Channel positions           : Front: L C R, Side: L R, LFE
    Sampling rate               : 48.0 KHz
    Frame rate                  : 93.750 fps (512 spf)
    Bit depth                   : 24 bits
    Compression mode            : Lossy
    Stream size                 : 1.04 GiB (10%)
    Language                    : English
    Default                     : No
    Forced                      : No
    Audio #3
    ID                          : 4
    Format                      : AAC
    Format/Info                 : Advanced Audio Codec
    Format profile              : LC
    Codec ID                    : A_AAC
    Duration                    : 1h 38mn
    Bit rate                    : 69.3 Kbps
    Channel(s)                  : 2 channels
    Channel positions           : Front: L R
    Sampling rate               : 48.0 KHz
    Frame rate                  : 46.875 fps (1024 spf)
    Compression mode            : Lossy
    Delay relative to video     : 9ms
    Stream size                 : 49.0 MiB (0%)
    Title                       : Commentary with Director Rebecca Miller
    Language                    : English
    Default                     : No
    Forced                      : No
    Text #1
    ID                          : 5
    Format                      : UTF-8
    Codec ID                    : S_TEXT/UTF8
    Codec ID/Info               : UTF-8 Plain Text
    Duration                    : 1h 31mn
    Bit rate                    : 1 bps
    Count of elements           : 15
    Stream size                 : 719 Bytes (0%)
    Title                       : forced
    Language                    : Russian
    Default                     : Yes
    Forced                      : No
    Text #2
    ID                          : 6
    Format                      : UTF-8
    Codec ID                    : S_TEXT/UTF8
    Codec ID/Info               : UTF-8 Plain Text
    Duration                    : 1h 33mn
    Bit rate                    : 120 bps
    Count of elements           : 1441
    Stream size                 : 83.1 KiB (0%)
    Language                    : Russian
    Default                     : No
    Forced                      : No
    Text #3
    ID                          : 7
    Format                      : UTF-8
    Codec ID                    : S_TEXT/UTF8
    Codec ID/Info               : UTF-8 Plain Text
    Duration                    : 1mn 5s
    Bit rate                    : 22 bps
    Count of elements           : 7
    Stream size                 : 180 Bytes (0%)
    Title                       : foeced
    Language                    : English
    Default                     : No
    Forced                      : No
    Text #4
    ID                          : 8
    Format                      : UTF-8
    Codec ID                    : S_TEXT/UTF8
    Codec ID/Info               : UTF-8 Plain Text
    Duration                    : 1h 35mn
    Bit rate                    : 82 bps
    Count of elements           : 1531
    Stream size                 : 57.4 KiB (0%)
    Language                    : English
    Default                     : No
    Forced                      : No
    Text #5
    ID                          : 9
    Format                      : UTF-8
    Codec ID                    : S_TEXT/UTF8
    Codec ID/Info               : UTF-8 Plain Text
    Duration                    : 1h 35mn
    Bit rate                    : 84 bps
    Count of elements           : 1580
    Stream size                 : 59.1 KiB (0%)
    Language                    : English
    Default                     : No
    Forced                      : No
    Text #6
    ID                          : 10
    Format                      : UTF-8
    Codec ID                    : S_TEXT/UTF8
    Codec ID/Info               : UTF-8 Plain Text
    Duration                    : 10s 218ms
    Bit rate                    : 105 bps
    Count of elements           : 5
    Stream size                 : 135 Bytes (0%)
    Title                       : forced commentary
    Language                    : English
    Default                     : No
    Forced                      : No
    Text #7
    ID                          : 11
    Format                      : UTF-8
    Codec ID                    : S_TEXT/UTF8
    Codec ID/Info               : UTF-8 Plain Text
    Duration                    : 1h 32mn
    Bit rate                    : 106 bps
    Count of elements           : 1552
    Stream size                 : 72.4 KiB (0%)
    Title                       : commentary
    Language                    : English
    Default                     : No
    Forced                      : No
    Text #8
    ID                          : 12
    Format                      : UTF-8
    Codec ID                    : S_TEXT/UTF8
    Codec ID/Info               : UTF-8 Plain Text
    Duration                    : 1h 37mn
    Bit rate                    : 60 bps
    Count of elements           : 1498
    Stream size                 : 43.0 KiB (0%)
    Language                    : French
    Default                     : No
    Forced                      : No
    Menu
    00:00:00.000                : en:00:00:00.000
    00:08:13.785                : en:00:08:13.785
    00:13:19.799                : en:00:13:19.799
    00:21:15.441                : en:00:21:15.441
    00:24:47.986                : en:00:24:47.986
    00:29:57.337                : en:00:29:57.337
    00:37:34.586                : en:00:37:34.586
    00:41:05.463                : en:00:41:05.463
    00:44:16.988                : en:00:44:16.988
    00:51:20.327                : en:00:51:20.327
    00:55:59.314                : en:00:55:59.314
    01:02:23.114                : en:01:02:23.114
    01:09:14.817                : en:01:09:14.817
    01:14:18.496                : en:01:14:18.496
    01:20:01.422                : en:01:20:01.422
    01:29:41.668                : en:01:29:41.668

    Скриншоты

    Скачать .torrent

    Скачать торрент-файл бесплатно и на максимальной скорости!

    Как скачивать? · Что такое торрент? · Рейтинг и ограничения

    !ВНИМАНИЕ!
    Сайт не распространяет и не хранит электронные версии произведений, а занимается лишь лишь предоставлением доступа к создаваемому пользователями каталогу ссылок на торрент-файлы, которые содержат только списки хеш-сумм, убедительная просьба с жалобами обращаться напрямую к пользователю. Файлы для обмена на трекере предоставлены пользователями сайта, и администрация не несёт ответственности за их содержание. Просьба не заливать файлы, защищенные авторскими правами, а также файлы нелегального содержания!


    _________________
    [Профиль] [ЛС]
    Показать сообщения:    
    Ответить на тему

    Текущее время: Сегодня, в 20:24

    Часовой пояс: GMT + 2



    Вы не можете начинать темы
    Вы не можете отвечать на сообщения
    Вы не можете редактировать свои сообщения
    Вы не можете удалять свои сообщения
    Вы не можете голосовать в опросах
    Вы не можете прикреплять файлы к сообщениям
    Вы не можете скачивать файлы