BitTorrentTracker PerecTracker.org
BitTorrentTracker PerecTracker.org
    
Регистрация  ·  Вход
 
 · 
Забыли пароль?

  • Финансовый монстр / Money Monster (Джоди Фостер / Jodie Foster ) [2016, США, Триллер, драма, криминал, BDRip, HD (720p)] DUB + Original + sub (rus, eng)

    Ответить на тему
     
    Автор Сообщение

    rechyn

    Создавать темы 20-Авг-2016 01:29

           

    [Цитировать]

    Финансовый монстр / Money Monster
    «Not every conspiracy is a theory»
    6.711 / 10 6.70 / 10
    -Год выпуска: 2016
    Страна: США
    Жанр: Триллер, драма, криминал
    Продолжительность: 01:38:39
    Перевод: Дублированный (iTunes)
    Оригинальная аудиодорожка: Есть
    Cубтитры: Русские форсированные, Русские, Английские
    Режиссёр: Джоди Фостер
    Сценарий: Алан Ди Фиоре, Джим Кауф, Джеми Линден
    Продюсер: Лара Аламеддин, Джордж Клуни, Дэн Дубицки
    Оператор: Мэттью Либатик
    Композитор: Доминик Льюис
    Художник: Кевин Томпсон, Дебора Дженсен, Сьюзэн Лайолл
    Монтаж: Мэтт Шесс
    В ролях: Джордж Клуни, Джулия Робертс, Джек О’Коннелл, Доминик Уэст, Катрина Балф, Джанкарло Эспозито, Кристофер Денэм, Ленни Венито, Кристофер Бауэр, Деннис Буцикарис
    Бюджет: $27 000 000
    Сборы в США: $41 012 075
    Сборы в мире: + $52 040 128 = $93 052 203
    Сборы в России: $1 287 798
    Мировая премьера: 12 мая 2016
    Премьера (РФ): 2 июня 2016, «WDSSPR»
    Описание: Сюжет фильма разворачивается вокруг Ли Гейтса, известного телеведущего, чьи финансовые советы сделали его настоящим гуру Уолл-Стрит. Один из зрителей шоу, воспользовавшись неудачным советом Ли, потерял все свое состояние и теперь хочет возмездия. Он берет знаменитость в заложники и тем самым поднимает рейтинги передачи, люди замерли перед экранами в ожидании ответа на вопрос: сколько стоит человеческая жизнь?-Качество исходника: Blu-Ray (BlueBird)
    Качество: BDRip
    Тип: HD (720p)
    Контейнер: M4V
    Видео: H.264, 1280x536, 2.40:1, 3 500 Kbps, 23.976 fps
    Аудио 1: Русский/Дублированный (iTunes), AAC / 2.0 / 160 Kbps / 48.0 KHz
    Аудио 2: Английский/Оригинальная дорожка , AAC / 2.0 / 160 Kbps / 48.0 KHz
    Аудио 3: Русский/Дублированный (iTunes), AC-3 / 5.1 / 384 Kbps / 48.0 KHz
    Аудио 4: Английский/Оригинальная дорожка , AC-3 / 5.1 / 640 Kbps / 48.0 KHz
    Субтитры 1: Русские форсированные
    Субтитры 2: Русские полные
    Субтитры 3: Английские полные
    -

    iTunes Meta Tags

    Sort Name: Money Monster
    XID: Apple:vendor_id:2016-667291
    contentID: 1106672159
    Screenwriters: Алан Ди Фиоре, Джим Кауф, Джеми Линден
    Producers: Лара Аламеддин, Джордж Клуни, Дэн Дубицки
    Director: Джоди Фостер
    Cast: Джордж Клуни, Джулия Робертс, Джек О’Коннелл, Доминик Уэст, Катрина Балф, Джанкарло Эспозито, Кристофер Денэм, Ленни Венито, Кристофер Бауэр, Деннис Буцикарис, Владимир Антоник, Елена Шульман, Станислав Тикунов, Илья Исаев, Ирина Киреева
    Studio: TriStar Productions, Inc.
    Rating: 5
    Long Description: Сюжет фильма разворачивается вокруг Ли Гейтса, известного телеведущего, чьи финансовые советы сделали его настоящим гуру Уолл-Стрит. Один из зрителей шоу, воспользовавшись неудачным советом Ли, потерял все свое состояние и теперь хочет возмездия. Он берет знаменитость в заложники и тем самым поднимает рейтинги передачи, люди замерли перед экранами в ожидании ответа на вопрос: сколько стоит человеческая жизнь?
    Description: Сюжет фильма разворачивается вокруг Ли Гейтса, известного телеведущего, чьи финансовые советы сделали его настоящим гуру Уолл-Стрит. Один из зрителей шоу, воспользовавшись неудачным советом Ли, потерял все свое состояние и теперь хочет возмездия. Он берет знаменитость в заложники и тем самым поднимает рейтинги передачи, люди замерли перед экранами в ожидании ответа на вопрос: сколько стоит человеческая жизнь?
    Release Date: 2016-05-12T08:00:00Z
    Genre: Drama
    Artist: Jodie Foster
    Name: Money Monster

    MediaInfo

    General
    Complete name : /Users/imac/HandBrake/Money Monster (720p HD).m4v
    Format : MPEG-4
    Codec ID : M4V
    File size : 3.34 GiB
    Duration : 1h 38mn
    Overall bit rate mode : Variable
    Overall bit rate : 4 847 Kbps
    Movie name : Money Monster
    Performer : Jodie Foster
    Director : Джоди Фостер
    Actor : Джордж Клуни / Джулия Робертс / Джек О’Коннелл / Доминик Уэст / Катрина Балф / Джанкарло Эспозито / Кристофер Денэм / Ленни Венито / Кристофер Бауэр / Деннис Буцикарис / Владимир Антоник / Елена Шульман / Станислав Тикунов / Илья Исаев / Ирина Киреева
    Screenplay by : Алан Ди Фиоре / Джим Кауф / Джеми Линден
    Producer : Лара Аламеддин / Джордж Клуни / Дэн Дубицки
    Production studio : TriStar Productions, Inc.
    Genre : Drama
    ContentType : Short Film
    Description : Сюжет фильма разворачивается вокруг Ли Гейтса, известного телеведущего, чьи финансовые советы сделали его настоящим гуру Уолл-Стрит. Один из зрителей шоу, воспользовавшись неудачным советом Ли, потерял все свое состояние и теперь хочет возмездия. Он берет знаменитость в заложники и тем самым поднимает рейтинги передачи, люди замерли перед экранами в ожидании ответа на вопрос: сколько стоит человеческая жизнь?
    Recorded date : UTC 2016-05-12 08:00:00
    Encoded date : UTC 2016-08-19 17:58:19
    Tagged date : UTC 2016-08-19 18:03:37
    Cover : Yes
    Rating : None
    Title/Sort : Money Monster
    LongDescription : Сюжет фильма разворачивается вокруг Ли Гейтса, известного телеведущего, чьи финансовые советы сделали его настоящим гуру Уолл-Стрит. Один из зрителей шоу, воспользовавшись неудачным советом Ли, потерял все свое состояние и теперь хочет возмездия. Он берет знаменитость в заложники и тем самым поднимает рейтинги передачи, люди замерли перед экранами в ожидании ответа на вопрос: сколько стоит человеческая жизнь?
    HDVideo : Yes
    AppleStoreCatalogID : 1106672159
    Vendor : Apple:vendor_id:2016-667291
    ContentRating : mpaa|R|400|
    Video #1
    ID : 1
    Format : AVC
    Format/Info : Advanced Video Codec
    Format profile : High@L3.1
    Format settings, CABAC : No
    Format settings, ReFrames : 3 frames
    Codec ID : avc1
    Codec ID/Info : Advanced Video Coding
    Duration : 1h 38mn
    Source duration : 1h 38mn
    Bit rate : 3 500 Kbps
    Width : 1 280 pixels
    Height : 536 pixels
    Display aspect ratio : 2.40:1
    Frame rate mode : Variable
    Frame rate : 23.976 fps
    Minimum frame rate : 23.810 fps
    Maximum frame rate : 24.272 fps
    Color space : YUV
    Chroma subsampling : 4:2:0
    Bit depth : 8 bits
    Scan type : Progressive
    Bits/(Pixel*Frame) : 0.213
    Stream size : 2.41 GiB (72%)
    Source stream size : 2.41 GiB (72%)
    Title : Main Program
    Writing library : x264 core 142 r2479 dd79a61
    Encoding settings : cabac=0 / ref=3 / deblock=1:-3:-3 / analyse=0x3:0x113 / me=umh / subme=9 / psy=1 / psy_rd=1.00:0.15 / mixed_ref=1 / me_range=32 / chroma_me=1 / trellis=0 / 8x8dct=1 / cqm=0 / deadzone=21,11 / fast_pskip=0 / chroma_qp_offset=-2 / threads=36 / lookahead_threads=3 / sliced_threads=0 / nr=0 / decimate=0 / interlaced=0 / bluray_compat=0 / constrained_intra=0 / bframes=3 / b_pyramid=0 / b_adapt=2 / b_bias=0 / direct=1 / weightb=0 / open_gop=0 / weightp=0 / keyint=240 / keyint_min=24 / scenecut=40 / intra_refresh=0 / rc_lookahead=40 / rc=2pass / mbtree=1 / bitrate=3500 / ratetol=1.0 / qcomp=0.65 / qpmin=0 / qpmax=69 / qpstep=4 / cplxblur=20.0 / qblur=0.5 / vbv_maxrate=9500 / vbv_bufsize=9500 / nal_hrd=none / filler=0 / ip_ratio=1.40 / aq=1:1.10
    Language : English
    Encoded date : UTC 2016-08-19 17:58:19
    Tagged date : UTC 2016-08-19 17:58:24
    Color range : Limited
    Color primaries : BT.709
    Transfer characteristics : BT.709
    Matrix coefficients : BT.709
    Video #2
    ID : 10
    Format : JPEG
    Codec ID : jpeg
    Duration : 1h 38mn
    Bit rate mode : Variable
    Bit rate : 832 bps
    Width : 640 pixels
    Height : 268 pixels
    Display aspect ratio : 2.40:1
    Frame rate mode : Variable
    Frame rate : 0.003 fps
    Minimum frame rate : 0.002 fps
    Maximum frame rate : 0.005 fps
    Color space : YUV
    Chroma subsampling : 4:2:0
    Bit depth : 8 bits
    Compression mode : Lossy
    Bits/(Pixel*Frame) : 1.617
    Stream size : 542 KiB (0%)
    Title : Chapter Images
    Language : English
    Encoded date : UTC 2016-08-19 17:58:59
    Tagged date : UTC 2016-08-19 17:58:59
    Audio #1
    ID : 2
    Format : AAC
    Format/Info : Advanced Audio Codec
    Format profile : LC
    Codec ID : 40
    Duration : 1h 38mn
    Bit rate mode : Variable
    Bit rate : 156 Kbps
    Maximum bit rate : 235 Kbps
    Channel(s) : 2 channels
    Channel positions : Front: L R
    Sampling rate : 48.0 KHz
    Compression mode : Lossy
    Stream size : 110 MiB (3%)
    Title : Russian Stereo
    Language : Russian
    Encoded date : UTC 2016-08-19 17:58:19
    Tagged date : UTC 2016-08-19 17:58:55
    Audio #2
    ID : 3
    Format : AAC
    Format/Info : Advanced Audio Codec
    Format profile : LC
    Codec ID : 40
    Duration : 1h 38mn
    Bit rate mode : Variable
    Bit rate : 157 Kbps
    Maximum bit rate : 253 Kbps
    Channel(s) : 2 channels
    Channel positions : Front: L R
    Sampling rate : 48.0 KHz
    Compression mode : Lossy
    Stream size : 110 MiB (3%)
    Title : English Stereo
    Language : English
    Encoded date : UTC 2016-08-19 17:58:19
    Tagged date : UTC 2016-08-19 17:58:55
    Audio #3
    ID : 4
    Format : AC-3
    Format/Info : Audio Coding 3
    Mode extension : CM (complete main)
    Format settings, Endianness : Big
    Codec ID : ac-3
    Duration : 1h 38mn
    Bit rate mode : Constant
    Bit rate : 384 Kbps
    Channel(s) : 6 channels
    Channel positions : Front: L C R, Side: L R, LFE
    Sampling rate : 48.0 KHz
    Bit depth : 16 bits
    Compression mode : Lossy
    Stream size : 271 MiB (8%)
    Title : Russian DD 5.1
    Language : Russian
    Encoded date : UTC 2016-08-19 17:58:19
    Tagged date : UTC 2016-08-19 17:58:55
    Audio #4
    ID : 5
    Format : AC-3
    Format/Info : Audio Coding 3
    Mode extension : CM (complete main)
    Format settings, Endianness : Big
    Codec ID : ac-3
    Duration : 1h 38mn
    Bit rate mode : Constant
    Bit rate : 640 Kbps
    Channel(s) : 6 channels
    Channel positions : Front: L C R, Side: L R, LFE
    Sampling rate : 48.0 KHz
    Bit depth : 16 bits
    Compression mode : Lossy
    Stream size : 452 MiB (13%)
    Title : English DD 5.1
    Language : English
    Encoded date : UTC 2016-08-19 17:58:19
    Tagged date : UTC 2016-08-19 17:58:55
    Text #1
    ID : 6
    Format : Timed Text
    Muxing mode : sbtl
    Codec ID : tx3g
    Duration : 1h 6mn
    Bit rate mode : Variable
    Bit rate : 1 bps
    Stream size : 360 Bytes (0%)
    Title : Russian forced
    Language : Russian
    Encoded date : UTC 2016-08-19 17:58:19
    Tagged date : UTC 2016-08-19 17:58:44
    Text #2
    ID : 7
    Format : Timed Text
    Muxing mode : sbtl
    Codec ID : tx3g
    Duration : 1h 32mn
    Bit rate mode : Variable
    Bit rate : 158 bps
    Stream size : 107 KiB (0%)
    Title : Russian full
    Language : Russian
    Encoded date : UTC 2016-08-19 17:58:19
    Tagged date : UTC 2016-08-19 17:58:53
    Text #3
    ID : 8
    Format : Timed Text
    Muxing mode : sbtl
    Codec ID : tx3g
    Duration : 1h 35mn
    Bit rate mode : Variable
    Bit rate : 136 bps
    Stream size : 94.8 KiB (0%)
    Title : English full
    Language : English
    Encoded date : UTC 2016-08-19 17:58:19
    Tagged date : UTC 2016-08-19 17:58:54
    Menu #1
    00:00:00.000 : 00:00:00.000
    00:07:14.309 : 00:07:14.225
    00:12:38.883 : 00:12:38.800
    00:20:08.541 : 00:20:08.457
    00:24:32.262 : 00:24:32.179
    00:31:37.938 : 00:31:37.854
    00:39:52.265 : 00:39:52.140
    00:45:29.185 : 00:45:29.101
    00:51:37.594 : 00:51:37.511
    00:55:39.711 : 00:55:39.628
    00:58:43.103 : 00:58:43.019
    01:06:42.373 : 01:06:42.207
    01:10:27.765 : 01:10:27.682
    01:16:06.312 : 01:16:06.228
    01:19:55.249 : 01:19:55.165
    01:29:35.120 : 01:29:35.036
    Menu #2
    ID : 9
    Codec ID : text
    Duration : 1h 38mn
    Language : English
    Encoded date : UTC 2016-08-19 17:58:55
    Tagged date : UTC 2016-08-19 17:58:55
    Bit rate mode : CBR
    00:00:00.000 : 00:00:00.000
    00:07:14.309 : 00:07:14.225
    00:12:38.883 : 00:12:38.800
    00:20:08.541 : 00:20:08.457
    00:24:32.262 : 00:24:32.179
    00:31:37.938 : 00:31:37.854
    00:39:52.265 : 00:39:52.140
    00:45:29.185 : 00:45:29.101
    00:51:37.594 : 00:51:37.511
    00:55:39.711 : 00:55:39.628
    00:58:43.103 : 00:58:43.019
    01:06:42.373 : 01:06:42.207
    01:10:27.765 : 01:10:27.682
    01:16:06.312 : 01:16:06.228
    01:19:55.249 : 01:19:55.165
    01:29:35.120 : 01:29:35.036

    x264 лог

    x264 [info]: frame I:1798  Avg QP:12.60  size: 97408
    x264 [info]: frame P:59459 Avg QP:14.29  size: 30545
    x264 [info]: frame B:80679 Avg QP:16.25  size:  7415
    x264 [info]: consecutive B-frames:  5.4% 48.3% 24.5% 21.8%
    x264 [info]: mb I  I16..4:  7.1% 59.6% 33.3%
    x264 [info]: mb P  I16..4:  1.8%  6.2%  2.4%  P16..4: 43.9% 27.5% 12.2%  0.0%  0.0%    skip: 6.1%
    x264 [info]: mb B  I16..4:  0.1%  0.6%  0.2%  B16..8: 40.2% 13.6%  2.0%  direct: 3.6%  skip:39.7%  L0:38.4% L1:50.8% BI:10.8%
    x264 [info]: 8x8 transform intra:59.8% inter:39.2%
    x264 [info]: coded y,uvDC,uvAC intra: 85.3% 72.5% 57.3% inter: 25.4% 20.5% 14.0%
    x264 [info]: i16 v,h,dc,p: 52% 15% 11% 22%
    x264 [info]: i8 v,h,dc,ddl,ddr,vr,hd,vl,hu: 15%  8% 13%  9% 11% 12% 11% 10% 10%
    x264 [info]: i4 v,h,dc,ddl,ddr,vr,hd,vl,hu: 17% 10%  5% 10% 14% 14% 12% 10%  8%
    x264 [info]: i8c dc,h,v,p: 55% 15% 22%  8%
    x264 [info]: ref P L0: 73.1% 16.3% 10.6%
    x264 [info]: ref B L0: 83.9% 16.1%
    x264 [info]: kb/s:3499.39

    Скриншоты

    -

    Релиз подготовлен для просмотра на Apple TV, iPad, iPhone, iPod Touch.
    Для просмотра данного релиза на компьютере с ОС Windows рекомендуется использовать VLC media player
    Скачать .torrent

    Скачать торрент-файл бесплатно и на максимальной скорости!

    Как скачивать? · Что такое торрент? · Рейтинг и ограничения

    !ВНИМАНИЕ!
    Сайт не распространяет и не хранит электронные версии произведений, а занимается лишь лишь предоставлением доступа к создаваемому пользователями каталогу ссылок на торрент-файлы, которые содержат только списки хеш-сумм, убедительная просьба с жалобами обращаться напрямую к пользователю. Файлы для обмена на трекере предоставлены пользователями сайта, и администрация не несёт ответственности за их содержание. Просьба не заливать файлы, защищенные авторскими правами, а также файлы нелегального содержания!


    _________________
    [Профиль] [ЛС]
    Показать сообщения:    
    Ответить на тему

    Текущее время: Сегодня, в 04:04

    Часовой пояс: GMT + 2



    Вы не можете начинать темы
    Вы не можете отвечать на сообщения
    Вы не можете редактировать свои сообщения
    Вы не можете удалять свои сообщения
    Вы не можете голосовать в опросах
    Вы не можете прикреплять файлы к сообщениям
    Вы не можете скачивать файлы