BitTorrentTracker PerecTracker.org
BitTorrentTracker PerecTracker.org
    
Регистрация  ·  Вход
 
 · 
Забыли пароль?

  • Последний король Шотландии / The Last King of Scotland (Кевин МакДональд / Kevin Macdonald) [2006, Великобритания, Германия, США, драма, биография, история, HDTV 1080i] [Open Matte] MVO

    Ответить на тему
     
    Автор Сообщение

    Light

    Создавать темы 19-Авг-2016 21:17

           

    [Цитировать]

    Последний король Шотландии / The Last King of Scotland / Open Matte
    Страна: Великобритания, Германия, США
    Жанр: драма, биография, история
    Год выпуска: 2006
    Продолжительность: 01:53:34
    Перевод: Профессиональный (многоголосый закадровый) 1 канал
    Cубтитры: нет
    Оригинальная аудиодорожка: нет
    Режиссер: Кевин МакДональд / Kevin Macdonald
    В ролях: Форест Уитакер, Джеймс МакЭвой, Керри Вашингтон, Джиллиан Андерсон, Саймон МакБерни, Дэвид Ойелоуо, Адам Котц
    Описание: Власть президента Уганды Иди Амина и его смелые решения сперва очаровали шотландского медика Гарригана, ставшего личным врачом диктатора. Но жестокий режим и кровавые преступления президента изменили отношение Гарригана к своему кумиру и он, всеми силами, пытается повлиять на проиcходящее.
    Доп. информация: HDTV имеет иное наполнение кадра, чем BD http://screenshotcomparison.com/comparison/181612
    Сэмпл: http://multi-up.com/1114250
    Качество видео: HDTV1080i
    Формат видео: TS
    Видео: AVC, 1920x1080 (16:9), 25.000 fps, 11.9 Mbps (0.230 bit/pixel)
    Аудио: MP2, 48.0 KHz, 2 ch, 192 Kbps, CBR (Russian)

    MediaInfo

    бщее
    Идентификатор : 3 (0x3)
    Полное имя : M:\МОИ РАЗДАЧИ\Последний король Шотландии.ts
    Формат : MPEG-TS
    Размер файла : 10,1 Гбайт
    Продолжительность : 1 ч. 53 м.
    Режим общего битрейта : Переменный
    Общий поток : 12,8 Мбит/сек
    Видео
    Идентификатор : 2141 (0x85D)
    Идентификатор меню : 21004 (0x520C)
    Формат : AVC
    Формат/Информация : Advanced Video Codec
    Профиль формата : Main@L4
    Параметр CABAC формата : Да
    Параметр ReFrames формата : 3 кадра
    Идентификатор кодека : 27
    Продолжительность : 1 ч. 53 м.
    Битрейт : 11,9 Мбит/сек
    Ширина : 1920 пикселей
    Высота : 1080 пикселей
    Соотношение сторон : 16:9
    Частота кадров : 25,000 кадров/сек
    Стандарт вещания : Component
    Цветовое пространство : YUV
    Субдискретизация насыщенности : 4:2:0
    Битовая глубина : 8 бит
    Тип развёртки : Чересстрочная
    Метод сохранения типа развёртки : Раздельные поля
    Порядок развёртки : Верхнее поле первое
    Бит/(Пиксели*Кадры) : 0.230
    Размер потока : 9,48 Гбайт (94%)
    Цветовой диапазон : Limited
    Основные цвета : BT.709
    Характеристики трансфера : BT.709
    Коэффициенты матрицы : BT.709
    Аудио
    Идентификатор : 2142 (0x85E)
    Идентификатор меню : 21004 (0x520C)
    Формат : MPEG Audio
    Версия формата : Version 1
    Профиль формата : Layer 2
    Идентификатор кодека : 4
    Продолжительность : 1 ч. 53 м.
    Вид битрейта : Постоянный
    Битрейт : 192 Кбит/сек
    Каналы : 2 канала
    Частота : 48,0 КГц
    Метод сжатия : С потерями
    Задержка видео : -8 мс.
    Размер потока : 156 Мбайт (2%)
    Язык : Russian

    Скриншоты

    Скачать .torrent

    Скачать торрент-файл бесплатно и на максимальной скорости!

    Как скачивать? · Что такое торрент? · Рейтинг и ограничения

    !ВНИМАНИЕ!
    Сайт не распространяет и не хранит электронные версии произведений, а занимается лишь лишь предоставлением доступа к создаваемому пользователями каталогу ссылок на торрент-файлы, которые содержат только списки хеш-сумм, убедительная просьба с жалобами обращаться напрямую к пользователю. Файлы для обмена на трекере предоставлены пользователями сайта, и администрация не несёт ответственности за их содержание. Просьба не заливать файлы, защищенные авторскими правами, а также файлы нелегального содержания!


    _________________
    [Профиль] [ЛС]
    Показать сообщения:    
    Ответить на тему

    Текущее время: Сегодня, в 16:36

    Часовой пояс: GMT + 2



    Вы не можете начинать темы
    Вы не можете отвечать на сообщения
    Вы не можете редактировать свои сообщения
    Вы не можете удалять свои сообщения
    Вы не можете голосовать в опросах
    Вы не можете прикреплять файлы к сообщениям
    Вы не можете скачивать файлы