BitTorrentTracker PerecTracker.org
BitTorrentTracker PerecTracker.org
    
Регистрация  ·  Вход
 
 · 
Забыли пароль?

  • По небу босиком (Султан Хажироко) [2015, мелодрама, комедия, WEB-DLRip-AVC]

    Ответить на тему
     
    Автор Сообщение

    Flirldrerve

    Создавать темы 19-Авг-2016 17:05

           

    [Цитировать]

    По небу босиком
    «Танцуй, ведь ты так молод... Люби, ведь ты так одинок»

    Жанр: мелодрама, комедия
    Год выпуска: 2015
    Продолжительность: 01:31:44
    Режиссер: Султан Хажироко
    В ролях: Алан Кокаев, Милана Карагулова, Тамби Масаев, Султан Хажироко, Валентин Камергоев, Роза Байзулаева, Фатима Мамаева, Юсуп Омаров, Сати Казанова, Ефрем Амирамов, Наталья Гулькина, Рустам Саидахмедов
    Описание:
    Говорят, что случайностей в жизни не бывает, что все предопределено... быть может там на небе есть такое министерство... ну, в котором все за нас решают: что и когда с нами должно произойти». С этих слов начинается история, в которой судьба играет с главными героями, превращая близких людей, в совсем незнакомых, даря им любовь и тут же забирая ее назад, сменяет радость грустью, а дружбу предательством. Но какие бы сюрпризы не преподносила жизнь - танцуй, ведь ты так молод, люби, ведь ты так одинок.


    Автор рипа: stalkerok
    Сэмпл
    Качество видео: WEB-DLRip-AVC [По небу босиком (2015) WEB-DL 1080p BLUEBIRD]
    Формат видео: MKV
    Видео: 2120 Кбит/сек, 1024x576 (16:9), 25 кадр/сек, AVC
    Аудио: русский, 154 Кбит/сек, 48,0 КГц, 2 канала, AAC (LC) [iTunes]
    Навигация по главам: есть

    MediaInfo

    Общее
    Уникальный идентификатор : 205901738446774211395246334583734394424 (0x9AE73B7C7177FB34B407F128EA8DDE38)
    Полное имя : M:\2Rips\Po nebu bosikom\Po.nebu.bosikom.2015.WEB-DLRip-AVC.1.45Gb.stalkerok.new-team.mkv
    Формат : Matroska
    Версия формата : Version 4 / Version 2
    Размер файла : 1,46 Гбайт
    Продолжительность : 1 ч. 31 м.
    Общий поток : 2275 Кбит/сек
    Название фильма : По небу босиком (2015) (Rip by stalkerok)
    Дата кодирования : UTC 2016-08-19 11:38:40
    Программа кодирования : mkvmerge v8.6.1 ('Flying') 64bit
    Библиотека кодирования : libebml v1.3.3 + libmatroska v1.4.4
    Видео
    Идентификатор : 1
    Формат : AVC
    Формат/Информация : Advanced Video Codec
    Профиль формата : High@L4.1
    Параметр CABAC формата : Да
    Параметр ReFrames формата : 14 кадров
    Идентификатор кодека : V_MPEG4/ISO/AVC
    Продолжительность : 1 ч. 31 м.
    Битрейт : 2120 Кбит/сек
    Ширина : 1024 пикселя
    Высота : 576 пикселей
    Соотношение сторон : 16:9
    Режим частоты кадров : Постоянный
    Частота кадров : 25,000 кадров/сек
    Цветовое пространство : YUV
    Субдискретизация насыщенности : 4:2:0
    Битовая глубина : 8 бит
    Тип развёртки : Прогрессивная
    Бит/(Пиксели*Кадры) : 0.144
    Размер потока : 1,36 Гбайт (93%)
    Заголовок : По небу босиком (2015) (Rip by stalkerok)
    Библиотека кодирования : x264 core 148 r2705+54 9f484c1 t_mod_Custom [8-bit@all X86_64]
    Настройки программы : cabac=1 / ref=14 / deblock=1:-3:-2 / analyse=0x3:0x133 / me=umh / subme=10 / psy=1 / fade_compensate=0.00 / psy_rd=1.00:0.00 / mixed_ref=1 / me_range=32 / chroma_me=1 / trellis=2 / 8x8dct=1 / cqm=0 / deadzone=21,11 / fast_pskip=0 / chroma_qp_offset=-2 / threads=12 / lookahead_threads=3 / sliced_threads=0 / nr=0 / decimate=0 / interlaced=0 / bluray_compat=0 / constrained_intra=0 / fgo=0 / bframes=15 / b_pyramid=2 / b_adapt=2 / b_bias=0 / direct=3 / weightb=1 / open_gop=0 / weightp=2 / keyint=250 / keyint_min=25 / scenecut=40 / intra_refresh=0 / rc_lookahead=60 / rc=2pass / mbtree=0 / bitrate=2120 / ratetol=1.0 / qcomp=0.65 / qpmin=0:0:0 / qpmax=69:69:69 / qpstep=4 / cplxblur=20.0 / qblur=0.5 / vbv_maxrate=50000 / vbv_bufsize=62500 / nal_hrd=none / filler=0 / ip_ratio=1.40 / pb_ratio=1.30 / aq=3:0.85 / aq-sensitivity=10.00 / aq-factor=1.00:1.00:1.00 / aq2=0 / aq3=0
    Default : Да
    Forced : Нет
    Аудио
    Идентификатор : 2
    Формат : AAC
    Формат/Информация : Advanced Audio Codec
    Профиль формата : LC
    Идентификатор кодека : A_AAC
    Продолжительность : 1 ч. 31 м.
    Битрейт : 154 Кбит/сек
    Каналы : 2 канала
    Расположение каналов : Front: L R
    Частота : 48,0 КГц
    Частота кадров : 46,875 кадров/сек (1024 spf)
    Метод сжатия : С потерями
    Размер потока : 101 Мбайт (7%)
    Заголовок : [ORIGINAL] AAC 2.0 @ 160 kbps
    Язык : Russian
    Default : Да
    Forced : Нет
    Меню
    00:00:00.000 : en:Глава 1
    00:06:18.040 : en:Глава 2
    00:11:39.280 : en:Глава 3
    00:16:54.480 : en:Глава 4
    00:22:38.600 : en:Глава 5
    00:26:51.720 : en:Глава 6
    00:33:46.160 : en:Глава 7
    00:39:04.200 : en:Глава 8
    00:45:57.480 : en:Глава 9
    00:53:17.080 : en:Глава 10
    00:59:31.520 : en:Глава 11
    01:03:28.640 : en:Глава 12
    01:08:12.760 : en:Глава 13
    01:16:37.560 : en:Глава 14
    01:25:51.840 : en:Глава 15

    Скриншоты

    Скачать .torrent

    Скачать торрент-файл бесплатно и на максимальной скорости!

    Как скачивать? · Что такое торрент? · Рейтинг и ограничения

    !ВНИМАНИЕ!
    Сайт не распространяет и не хранит электронные версии произведений, а занимается лишь лишь предоставлением доступа к создаваемому пользователями каталогу ссылок на торрент-файлы, которые содержат только списки хеш-сумм, убедительная просьба с жалобами обращаться напрямую к пользователю. Файлы для обмена на трекере предоставлены пользователями сайта, и администрация не несёт ответственности за их содержание. Просьба не заливать файлы, защищенные авторскими правами, а также файлы нелегального содержания!


    _________________
    [Профиль] [ЛС]
    Показать сообщения:    
    Ответить на тему

    Текущее время: Сегодня, в 06:48

    Часовой пояс: GMT + 2



    Вы не можете начинать темы
    Вы не можете отвечать на сообщения
    Вы не можете редактировать свои сообщения
    Вы не можете удалять свои сообщения
    Вы не можете голосовать в опросах
    Вы не можете прикреплять файлы к сообщениям
    Вы не можете скачивать файлы