Register  ·  Log in
Forgot password?

  • Крутые меры / Bastille Day (Джеймс Уоткинс / James Watkins) [2016, Великобритания, Франция, США, Боевик, драма, HDRip] VO (Хихикающий доктор)

    Reply to topic
    Author Message


    Post 19-Aug-2016 18:05



    Крутые меры / Bastille Day
    Страна: Великобритания, Франция, США
    Жанр: Боевик, драма
    Год выпуска: 2016
    Продолжительность: 01:31:49
    Перевод: Любительский (одноголосый закадровый) - (Хихикающий доктор)
    Cубтитры: нет
    Оригинальная аудиодорожка: нет
    Режиссер: Джеймс Уоткинс / James Watkins
    В ролях: Идрис Эльба, Ричард Мэдден, Келли Райлли, Шарлотта Ле Бон, Анатол Юсеф, Хорхе Леон Мартинес, Карл Фаррер, Хосе Гарсиа, Александр Купер, Эрик Эбони
    Описание: Ловкий карманник Майкл Мэйсон привлекает внимание полиции и спецслужб, когда крадет сумку, содержащую гораздо больше, чем просто бумажник. На его след выходит дерзкий и резкий спецагент ЦРУ Шон Брайар. Вдвоем они становятся мишенью тайной преступной организации и в течение суток должны вывести злоумышленников на чистую воду.
    Качество видео: HDRip
    Исходник: [Bastille.Day.2016.VO.BDRip.1080p.selezen]
    Формат видео: AVI
    Видео: 720x304 (2.37:1), 24.000 fps, XviD build 65 ~2072 kbps avg, 0.39 bit/pixel
    Аудио RUS: 48 kHz, AC3 Dolby Digital, 2/0 (L,R) ch, ~192 kbps

    При появлении проф. озвучки Перезалью.

    Rip by Ториял для


    Format : AVI
    Format/Info : Audio Video Interleave
    File size : 1.46 GiB
    Duration : 1h 31mn
    Overall bit rate : 2 274 Kbps
    Writing application : VirtualDubMod | || (build 2550/release)
    Writing library : VirtualDubMod build 2550/release
    ID : 0
    Format : MPEG-4 Visual
    Format profile : Advanced Simple@L5
    Format settings, BVOP : 1
    Format settings, QPel : No
    Format settings, GMC : No warppoints
    Format settings, Matrix : Custom
    Codec ID : XVID
    Codec ID/Hint : XviD
    Duration : 1h 31mn
    Bit rate : 2 072 Kbps
    Width : 720 pixels
    Height : 304 pixels
    Display aspect ratio : 2.35:1
    Frame rate : 24.000 fps
    Color space : YUV
    Chroma subsampling : 4:2:0
    Bit depth : 8 bits
    Scan type : Progressive
    Compression mode : Lossy
    Bits/(Pixel*Frame) : 0.394
    Stream size : 1.33 GiB (91%)
    Writing library : XviD 65
    ID : 1
    Format : AC-3
    Format/Info : Audio Coding 3
    Mode extension : CM (complete main)
    Format settings, Endianness : Big
    Codec ID : 2000
    Duration : 1h 31mn
    Bit rate mode : Constant
    Bit rate : 192 Kbps
    Channel(s) : 2 channels
    Channel positions : Front: L R
    Sampling rate : 48.0 KHz
    Frame rate : 31.250 fps (1536 spf)
    Compression mode : Lossy
    Stream size : 126 MiB (8%)
    Alignment : Split accross interleaves
    Interleave, duration : 42 ms (1.00 video frame)
    Interleave, preload duratio : 500 ms


    Download .torrent

    Download free and at maximum speed!

    How to Download? · What is a torrent? · Ratings and Limitations

    The site does not extend and does not store electronic(digital) versions of products, and only gives access to a reference catalogue created by users on torrent-files which contain only lists of the hash-sums, the earnest entreaty, with complaints(abuse) to access directly to the user. Files for an exchange on tracker are given by users of a site, and the administration does not bear the responsibility for their maintenance. The request to not fill in the files protected by copyrights, and also files of the illegal maintenance!

    [Profile] [PM]
    Display posts from previous:    
    Reply to topic

    The time now is: Today 15:35

    All times are GMT + 3 Hours

    You cannot post new topics in this forum
    You cannot reply to topics in this forum
    You cannot edit your posts in this forum
    You cannot delete your posts in this forum
    You cannot vote in polls in this forum
    You cannot attach files in this forum
    You cannot download files in this forum