BitTorrentTracker PerecTracker.org
BitTorrentTracker PerecTracker.org
    
Регистрация  ·  Вход
 
 · 
Забыли пароль?

  • Из грязи в князи / Вспышка справа / From zero to hero / Atomski zdesna (Срджан Драгоевич / Sr?an Dragojevic) [2014, Сербия, Черногория, комедия, драма, DVDRip] Sub Rus (Antonio Salazar)

    Ответить на тему
     
    Автор Сообщение

    Light

    Создавать темы 19-Авг-2016 17:05

           

    [Цитировать]

    Из грязи в князи / Вспышка справа / From zero to hero / Atomski zdesna
    Страна: Сербия, Черногория
    Жанр: комедия, драма
    Год выпуска: 2014
    Продолжительность: 01:36:18
    Перевод: Субтитры Antonio Salazar
    Cубтитры: русские
    Оригинальная аудиодорожка: сербский, хорватский, словенский
    Режиссер: Срджан Драгоевич / Srđan Dragojević
    В ролях: Срджан Тодорович, Бранко Джурич, Таня Рибич, Боян Навоец, Горан Навоец, Наташа Янич, Милош Самолов, и другие
    Описание: Таймшер - это такой полумошеннический бизнес, заключающийся в долгосрочной совместной аренде курортной недвижимости по завышенным ценам и без возможности перепродажи. Чтобы впарить населению такой "подарок" нужно быть настоящим мастером убеждения - и главный герой, белградец Младен Савич им, несомненно является. Фирма, в которой он работает, заманивает обещанием бесплатного 6-дневного отдыха клиентов со всей бывшей Югославии, а там уж менеджеры обрабатывают расслабившихся курортников на предмет заключения сделки. Но Младен и сам расслабился: пропустил несколько ипотечных платежей; позволил своему начальнику узнать, что спит с его женой, и, наконец, получил "трудного" клиента - прижимистого и ехидного ветерана-босняка, имеющего личный счёт к сербам. Но между продавцом и покупателем понемногу возникает человеческая симпатия и Младену становится все труднее добиваться от своего визави подписи под заведомо нечестным договором, от которого, тем не менее, зависит судьба героя.
    Доп. информация: "Atomski zdesna" - югославский аналог воинской команды "Вспышка справа", связанное с которой воспоминание имеет важное сюжетное значение. Под этим названием фильм показывался в экс-Югославии, а для России (в которой, однако, картина не попала в прокат) придумали другое: "Из грязи в князи", буквальный перевод слогана "from zero to hero", которым в тяжелые моменты подбадривают себя члены полусектантского сообщества продавцов таймшеров.
    Сэмпл: http://sendfile.su/1258432
    Качество видео: DVDRip
    Формат видео: AVI
    Видео: XviD, 720x304, 2,35:1, 25 fps, 1832 kbps
    Аудио: AC-3, 48 kHz, 192 kbps, 2ch
    Формат субтитров: softsub (SRT)

    Субтитры

    1
    00:01:33,929 --> 00:01:40,640
    Социалистическая Югославия гарантировала каждому трудящемуся 2 недели бесплатного отдыха
    2
    00:01:43,849 --> 00:01:48,047
    Обновление маршрута. Двигайтесь по кругу.
    3
    00:01:50,089 --> 00:01:55,721
    Обновление маршрута. Двигайтесь по кругу.
    4
    00:01:58,449 --> 00:02:04,319
    Обновление маршрута. Двигайтесь по кругу.
    5
    00:02:13,637 --> 00:02:15,673
    Хочешь по кругу?
    6
    00:02:24,957 --> 00:02:26,913
    Ты опять обкурился?
    7
    00:02:29,157 --> 00:02:32,945
    Или нанюхался?
    8
    00:02:35,317 --> 00:02:37,433
    Слушай, в таком тоне будешь говорить с мужем,
    9
    00:02:37,637 --> 00:02:40,435
    а с тем, кто тебя трахает - не рекомендую.
    10
    00:02:55,557 --> 00:02:58,913
    У тебя полчаса, чтобы вернуть себе человеческий облик.
    11
    00:03:00,157 --> 00:03:01,510
    Есть сигаретка?
    12
    00:03:04,517 --> 00:03:07,270
    Полегче, блин! Ты хочешь меня заколоть?
    13
    00:03:07,477 --> 00:03:10,514
    Не сейчас. Еще чуть-чуть!
    14
    00:03:19,557 --> 00:03:24,108
    Потрахался со мной - и бриться не надо.
    15
    00:03:26,157 --> 00:03:28,113
    Пьяная скотина
    16
    00:03:30,077 --> 00:03:32,033
    Да, вот еще что.
    17
    00:03:32,677 --> 00:03:36,636
    Метод знает про нас. Думаю, это должно тебя обеспокоить.
    18
    00:03:46,117 --> 00:03:49,871
    Привет, мама! - Привет!
    19
    00:03:50,077 --> 00:03:53,956
    Ты такой бледный. Ты вообще там кушаешь?
    20
    00:03:54,157 --> 00:03:57,547
    Ем, мама. Каждый день кого-нибудь съедаю.

    MediaInfo

    Формат : AVI
    Формат/Информация : Audio Video Interleave
    Размер файла : 1,37 Гбайт
    Продолжительность : 1 ч. 36 м.
    Общий поток : 2034 Кбит/сек
    Программа кодирования : VirtualDubMod 1.5.10.2 (build 2540/release)
    Библиотека кодирования : VirtualDubMod build 2540/release
    Видео
    Идентификатор : 0
    Формат : MPEG-4 Visual
    Профиль формата : Advanced Simple@L5
    Параметр BVOP формата : 2
    Параметр QPel формата : Нет
    Параметр GMC формата : Без точки перехода
    Параметр матрицы формата : Выборочная
    Идентификатор кодека : XVID
    Идентификатор кодека/Подсказка : XviD
    Продолжительность : 1 ч. 36 м.
    Битрейт : 1832 Кбит/сек
    Ширина : 720 пикселей
    Высота : 304 пикселя
    Соотношение сторон : 2,35:1
    Частота кадров : 25,000 кадров/сек
    Цветовое пространство : YUV
    Субдискретизация насыщенности : 4:2:0
    Битовая глубина : 8 бит
    Тип развёртки : Прогрессивная
    Метод сжатия : С потерями
    Бит/(Пиксели*Кадры) : 0.335
    Размер потока : 1,23 Гбайт (90%)
    Библиотека кодирования : XviD 1.2.0.dev47 (UTC 2006-11-01)
    Аудио
    Идентификатор : 1
    Формат : AC-3
    Формат/Информация : Audio Coding 3
    Расширение режима : CM (complete main)
    Параметр Endianness формата : Big
    Идентификатор кодека : 2000
    Продолжительность : 1 ч. 36 м.
    Вид битрейта : Постоянный
    Битрейт : 192 Кбит/сек
    Каналы : 2 канала
    Расположение каналов : Front: L R
    Частота : 48,0 КГц
    Битовая глубина : 16 бит
    Метод сжатия : С потерями
    Размер потока : 132 Мбайт (9%)
    Выравнивание : Разделение по промежуткам
    Продолжительность промежутка : 40 мс. (1,00 видеокадр)
    Время предзагрузки промежутка : 500 мс.

    Скриншот c названием фильма

    Скриншоты




    Скачать .torrent

    Скачать торрент-файл бесплатно и на максимальной скорости!

    Как скачивать? · Что такое торрент? · Рейтинг и ограничения

    !ВНИМАНИЕ!
    Сайт не распространяет и не хранит электронные версии произведений, а занимается лишь лишь предоставлением доступа к создаваемому пользователями каталогу ссылок на торрент-файлы, которые содержат только списки хеш-сумм, убедительная просьба с жалобами обращаться напрямую к пользователю. Файлы для обмена на трекере предоставлены пользователями сайта, и администрация не несёт ответственности за их содержание. Просьба не заливать файлы, защищенные авторскими правами, а также файлы нелегального содержания!


    _________________
    [Профиль] [ЛС]
    Показать сообщения:    
    Ответить на тему

    Текущее время: Сегодня, в 07:04

    Часовой пояс: GMT + 2



    Вы не можете начинать темы
    Вы не можете отвечать на сообщения
    Вы не можете редактировать свои сообщения
    Вы не можете удалять свои сообщения
    Вы не можете голосовать в опросах
    Вы не можете прикреплять файлы к сообщениям
    Вы не можете скачивать файлы