BitTorrentTracker PerecTracker.org
BitTorrentTracker PerecTracker.org
    
Регистрация  ·  Вход
 
 · 
Забыли пароль?

  • Майна / Maina (Мишель Полетт / Michel Poulette) [2013, Канада, Приключения, BDRip] VO (PashaUp)

    Ответить на тему
     
    Автор Сообщение

    Light

    Создавать темы 19-Авг-2016 12:53

           

    [Цитировать]

    Майна / Maina-Страна: Канада
    Жанр: Приключения
    Год выпуска: 2013
    Продолжительность: 01:38:05-Перевод: Одноголосый закадровый [PashaUp]
    Cубтитры: нет-Режиссер: Мишель Полетт / Michel Poulette-В ролях: Ренелтта Арлук, Танту Кардинал, Грэм Грин, Пакак Иннуксук, Эрик Швейг, Роузэнн Супернаульт, Люси Тулугарджук-Описание: Юная девушка Майна родилась и выросла в племени северо — американских индейцев, которые испокон веков живут на лоне природы, верят в силы духов и почитают старые традиции, и обычаи. Родила девочку Такаэра, но вскормила и вырастила девочку другая женщина, ставшая спутницей отца — вождя племени. Такаэра не смогла простить ему измену. Она покинула племя и стала вести уединенную жизнь, оставаясь при этом шаманом племени. После смерти отца, отравленного членом враждующего племени Саиту, Майна вынуждена противостоять одержимому ею Саиту, а также отправиться в далекое путешествие, чтобы разыскать похищенного одиннадцатилетнего мальчишку из племени, по имени Нипки. На пути бесстрашную девушку ждет множество приключений, опасных ситуаций и знакомств с новыми интересными людьми.-Sample | IMDB | КиноПоиск-Тип релиза: BDRip [исх. Maina (BD25 / 1080p)]

    Формат видео: AVI-Видео: 592x320 (1.85:1), 25 fps, XviD build 50, 933 kbps avg, 0.20 bit/pixel
    Аудио: 48 kHz, MPEG Layer 3, 2 ch, 128.00 kbps avg [Russian_VO]-Релиз группы:
    -

    MediaInfo

    General
    Complete name : D:\Мои релизы\Maina_BDRip_[745]_RG_All_Films.avi
    Format : AVI
    Format/Info : Audio Video Interleave
    File size : 751 MiB
    Duration : 1h 38mn
    Overall bit rate : 1 071 Kbps
    Writing application : VirtualDubMod 1.5.10.3 | www.virtualdub-fr.org || (build 2550/release)
    Writing library : VirtualDubMod build 2550/release
    Video
    ID : 0
    Format : MPEG-4 Visual
    Format profile : Advanced Simple@L5
    Format settings, BVOP : Yes
    Format settings, QPel : No
    Format settings, GMC : No warppoints
    Format settings, Matrix : Custom
    Codec ID : XVID
    Codec ID/Hint : XviD
    Duration : 1h 38mn
    Bit rate : 933 Kbps
    Width : 592 pixels
    Height : 320 pixels
    Display aspect ratio : 1.850
    Frame rate : 25.000 fps
    Color space : YUV
    Chroma subsampling : 4:2:0
    Bit depth : 8 bits
    Scan type : Progressive
    Compression mode : Lossy
    Bits/(Pixel*Frame) : 0.197
    Stream size : 655 MiB (87%)
    Writing library : XviD 1.2.1 (UTC 2008-12-04)
    Audio
    ID : 1
    Format : MPEG Audio
    Format version : Version 1
    Format profile : Layer 3
    Mode : Joint stereo
    Mode extension : MS Stereo
    Codec ID : 55
    Codec ID/Hint : MP3
    Duration : 1h 38mn
    Bit rate mode : Constant
    Bit rate : 128 Kbps
    Channel(s) : 2 channels
    Sampling rate : 48.0 KHz
    Compression mode : Lossy
    Stream size : 89.8 MiB (12%)
    Alignment : Aligned on interleaves
    Interleave, duration : 40 ms (1.00 video frame)
    Interleave, preload duration : 504 ms
    Writing library : LAME3.90.3

    Скриншоты

    Скачать .torrent

    Скачать торрент-файл бесплатно и на максимальной скорости!

    Как скачивать? · Что такое торрент? · Рейтинг и ограничения

    !ВНИМАНИЕ!
    Сайт не распространяет и не хранит электронные версии произведений, а занимается лишь лишь предоставлением доступа к создаваемому пользователями каталогу ссылок на торрент-файлы, которые содержат только списки хеш-сумм, убедительная просьба с жалобами обращаться напрямую к пользователю. Файлы для обмена на трекере предоставлены пользователями сайта, и администрация не несёт ответственности за их содержание. Просьба не заливать файлы, защищенные авторскими правами, а также файлы нелегального содержания!


    _________________
    [Профиль] [ЛС]
    Показать сообщения:    
    Ответить на тему

    Текущее время: Сегодня, в 18:50

    Часовой пояс: GMT + 2



    Вы не можете начинать темы
    Вы не можете отвечать на сообщения
    Вы не можете редактировать свои сообщения
    Вы не можете удалять свои сообщения
    Вы не можете голосовать в опросах
    Вы не можете прикреплять файлы к сообщениям
    Вы не можете скачивать файлы