BitTorrentTracker PerecTracker.org
BitTorrentTracker PerecTracker.org
    
Регистрация  ·  Вход
 
 · 
Забыли пароль?

  • Маленький помощник Санты / Santa\'s Little Helper (Джил Джангер / Gil Junger) [2015, Канада, Комедия, семейный, WEB-DLRip] Dub (SDI Media)

    Ответить на тему
     
    Автор Сообщение

    Light

    Создавать темы 19-Авг-2016 04:29

           

    [Цитировать]

    Маленький помощник Санты / Santa's Little Helper
    Страна: Канада
    Жанр: Комедия, семейный
    Год выпуска: 2015
    Продолжительность: 01:30:11
    Перевод: Профессиональный (дублированный) - [SDI Media]
    Cубтитры: нет
    Оригинальная аудиодорожка: нет
    Режиссер: Джил Джангер / Gil Junger
    В ролях: Майк Мизанин, АннаЛинн МакКорд, Сарая-Джейд Бевис, Эрик Кинлисайд, Кэтрин Киркпатрик, Джофф Густафссон, Том МакЛарен, Дилан Шмид, Карен Холнесс, Бен Уилкинсон
    Описание: Главный герой Дэкс — жадный материалист, для которого Рождество — лишь никому не нужный праздник. Случается так, что накануне именно этого праздника он остается без работы, его бросает подружка, а в довершении всего, Дэкса выгоняют из квартиры. В это же время на Северном полюсе Санта-Клаус остался без маленького помощника Санты. Ему срочно необходимо найти подходящую кандидатуру на эту ответственную должность. Санта отправляет своего верного эльфа Билли на поиски нужного человека. Прибыв в Америку, Билли первым делом сталкивается с Дэксом. Девушка считает, что он вполне подходит для должности «маленький помощник Санты», стоит лишь разбудить в Дэксе настоящий дух Рождества.
    Сэмпл: http://multi-up.com/1114171
    Качество видео: WEB-DLRip
    Исходник: [Malenjkij.pomoshnik.Santy.2015.D.WEBDL.1080p]
    Формат видео: AVI
    Видео: 720x400 (1.80:1), 23.976 fps, XviD build 65 ~2112 kbps avg, 0.31 bit/pixel
    Аудио RUS: 48 kHz, AC3 Dolby Digital, 2/0 (L,R) ch, ~192 kbps

    Rip by Ториял для

    MediaInfo

    General
    Complete name : D:\Фильмы\Santa's Little Helper_2015_Toriyal_Rutracker.avi
    Format : AVI
    Format/Info : Audio Video Interleave
    File size : 1.46 GiB
    Duration : 1h 30mn
    Overall bit rate : 2 314 Kbps
    Writing application : VirtualDubMod 1.5.10.3 | www.virtualdub-fr.org || (build 2550/release)
    Writing library : VirtualDubMod build 2550/release
    Video
    ID : 0
    Format : MPEG-4 Visual
    Format profile : Advanced Simple@L5
    Format settings, BVOP : 1
    Format settings, QPel : No
    Format settings, GMC : No warppoints
    Format settings, Matrix : Custom
    Codec ID : XVID
    Codec ID/Hint : XviD
    Duration : 1h 30mn
    Bit rate : 2 113 Kbps
    Width : 720 pixels
    Height : 400 pixels
    Display aspect ratio : 16:9
    Frame rate : 23.976 (23976/1000) fps
    Color space : YUV
    Chroma subsampling : 4:2:0
    Bit depth : 8 bits
    Scan type : Progressive
    Compression mode : Lossy
    Bits/(Pixel*Frame) : 0.306
    Stream size : 1.33 GiB (91%)
    Writing library : XviD 65
    Audio
    ID : 1
    Format : AC-3
    Format/Info : Audio Coding 3
    Mode extension : CM (complete main)
    Format settings, Endianness : Big
    Codec ID : 2000
    Duration : 1h 30mn
    Bit rate mode : Constant
    Bit rate : 192 Kbps
    Channel(s) : 2 channels
    Channel positions : Front: L R
    Sampling rate : 48.0 KHz
    Frame rate : 31.250 fps (1536 spf)
    Compression mode : Lossy
    Stream size : 124 MiB (8%)
    Alignment : Split accross interleaves
    Interleave, duration : 42 ms (1.00 video frame)
    Interleave, preload duratio : 500 ms

    Скриншоты

    Цитата:
    Цитата:

    Перевод: Максим Богданов
    Роли озвучивали: Ольга Вербицкая, Анатолий Фечин, Екатерина Фролова, Михаил Карасиков, Дмитрий Шандров
    Скачать .torrent

    Скачать торрент-файл бесплатно и на максимальной скорости!

    Как скачивать? · Что такое торрент? · Рейтинг и ограничения

    !ВНИМАНИЕ!
    Сайт не распространяет и не хранит электронные версии произведений, а занимается лишь лишь предоставлением доступа к создаваемому пользователями каталогу ссылок на торрент-файлы, которые содержат только списки хеш-сумм, убедительная просьба с жалобами обращаться напрямую к пользователю. Файлы для обмена на трекере предоставлены пользователями сайта, и администрация не несёт ответственности за их содержание. Просьба не заливать файлы, защищенные авторскими правами, а также файлы нелегального содержания!


    _________________
    [Профиль] [ЛС]
    Показать сообщения:    
    Ответить на тему

    Текущее время: Сегодня, в 21:23

    Часовой пояс: GMT + 2



    Вы не можете начинать темы
    Вы не можете отвечать на сообщения
    Вы не можете редактировать свои сообщения
    Вы не можете удалять свои сообщения
    Вы не можете голосовать в опросах
    Вы не можете прикреплять файлы к сообщениям
    Вы не можете скачивать файлы