BitTorrentTracker PerecTracker.org
BitTorrentTracker PerecTracker.org
    
Регистрация  ·  Вход
 
 · 
Забыли пароль?

  • Эволюция Борна / The Bourne Legacy (Тони Гилрой / Tony Gilroy) [2012, США, боевик, триллер, детектив, приключения, HDTVRip] Dub + Eng

    Ответить на тему
     
    Автор Сообщение

    Light

    Создавать темы 19-Авг-2016 04:29

           

    [Цитировать]

    Эволюция Борна / The Bourne Legacy
    Страна: США
    Жанр: боевик, триллер, детектив, приключения
    Год выпуска: 2012
    Продолжительность: 02:15:02
    Перевод: Профессиональный (дублированный)
    Cубтитры: нет
    Оригинальная аудиодорожка: нет
    Режиссер: Тони Гилрой / Tony Gilroy
    В ролях: Джереми Реннер, Рейчел Вайс, Эдвард Нортон, Джоан Аллен, Альберт Финни, Скотт Гленн, Стейси Кич, Донна Мерфи, Майкл Чернус, Кори Столл
    Описание: История Джейсона Борна, бывшего наемным убийцей ЦРУ, отнюдь не закончилась. Ведь он слишком много знает, а таких людей не оставляют в покое даже после много лет после их ухода от активной деятельности. Однако, на этот раз речь пойдет об одном из совершенно секретных проектов, лишь косвенно связанных с ним. Главным действующим лицом на этот раз будет другой секретный агент по имени Аарон Кросс. Ему также предстоит скрываться от тех, кто пытается замести следы своих прошлых дел. И это будет совсем непросто, несмотря даже на его необычайные способности...
    Доп. информация: Рип с канала Первый HD. Из видеоряда удалены все посторонние элементы. Восстановлены финальные титры почти в полном объеме (к сожалению часть титров идет сначала на фоне моря в ускоренном темпе, поэтому видеоряд короче звукового где-то на минуту), русская и английская дорожка с BD. HDTV имеет большее наполнение кадра, чем BD http://screenshotcomparison.com/comparison/91611
    Сэмпл: http://multi-up.com/1114331
    Качество видео: HDTVRip
    Формат видео: AVI
    Видео: MPEG4, XviD, 720x400 (16:9), 23.976 fps, 1 540 Kbps (0.223 bit/pixel)
    Аудио: AC-3, 48.0 KHz, 6 ch, 384 Kbps, CBR - русский
    Аудио: AC-3, 48.0 KHz, 6 ch, 384 Kbps, CBR - английский

    MediaInfo

    Общее
    Полное имя : K:\Эволюция Борна.avi
    Формат : AVI
    Формат/Информация : Audio Video Interleave
    Профиль формата : OpenDML
    Размер файла : 2,19 Гбайт
    Продолжительность : 2 ч. 15 м.
    Общий поток : 2325 Кбит/сек
    Название фильма : Эволюция Борна / The Bourne Legacy (2012)
    Программа кодирования : VirtualDubMod 1.5.10.2 (build 2540/release)
    Библиотека кодирования : VirtualDubMod build 2540/release
    Авторское право : miha2154
    Видео
    Идентификатор : 0
    Формат : MPEG-4 Visual
    Профиль формата : Advanced Simple@L5
    Параметр BVOP формата : 1
    Параметр QPel формата : Нет
    Параметр GMC формата : Без точки перехода
    Параметр матрицы формата : Выборочная
    Идентификатор кодека : XVID
    Идентификатор кодека/Подсказка : XviD
    Продолжительность : 2 ч. 15 м.
    Битрейт : 1540 Кбит/сек
    Ширина : 720 пикселей
    Высота : 400 пикселей
    Соотношение сторон : 16:9
    Частота кадров : 23,976 (23976/1000) кадра/сек
    Цветовое пространство : YUV
    Субдискретизация насыщенности : 4:2:0
    Битовая глубина : 8 бит
    Тип развёртки : Прогрессивная
    Метод сжатия : С потерями
    Бит/(Пиксели*Кадры) : 0.223
    Размер потока : 1,45 Гбайт (66%)
    Библиотека кодирования : XviD 65
    Аудио #1
    Идентификатор : 1
    Формат : AC-3
    Формат/Информация : Audio Coding 3
    Расширение режима : CM (complete main)
    Параметр Endianness формата : Big
    Идентификатор кодека : 2000
    Продолжительность : 2 ч. 14 м.
    Вид битрейта : Постоянный
    Битрейт : 384 Кбит/сек
    Каналы : 6 каналов
    Расположение каналов : Front: L C R, Side: L R, LFE
    Частота : 48,0 КГц
    Частота кадров : 31,250 кадров/сек (1536 spf)
    Метод сжатия : С потерями
    Размер потока : 371 Мбайт (17%)
    Выравнивание : Разделение по промежуткам
    Продолжительность промежутка : 42 мс. (1,00 видеокадр)
    Время предзагрузки промежутка : 500 мс.
    Заголовок : Профессиональный (полное дублирование)
    Аудио #2
    Идентификатор : 2
    Формат : AC-3
    Формат/Информация : Audio Coding 3
    Расширение режима : CM (complete main)
    Параметр Endianness формата : Big
    Идентификатор кодека : 2000
    Продолжительность : 2 ч. 15 м.
    Вид битрейта : Постоянный
    Битрейт : 384 Кбит/сек
    Каналы : 6 каналов
    Расположение каналов : Front: L C R, Side: L R, LFE
    Частота : 48,0 КГц
    Частота кадров : 31,250 кадров/сек (1536 spf)
    Метод сжатия : С потерями
    Размер потока : 371 Мбайт (17%)
    Выравнивание : Разделение по промежуткам
    Продолжительность промежутка : 42 мс. (1,00 видеокадр)
    Время предзагрузки промежутка : 500 мс.
    Заголовок : Английский

    Скриншоты


    торрент перезалит 19.08.16 - Из видеоряда удалены все посторонние элементы. Восстановлены финальные титры почти в полном объеме (к сожалению часть титров идет сначала на фоне моря в ускоренном темпе, поэтому видеоряд короче звукового где-то на минуту), русская и английская дорожка с BD.
    Скачать .torrent

    Скачать торрент-файл бесплатно и на максимальной скорости!

    Как скачивать? · Что такое торрент? · Рейтинг и ограничения

    !ВНИМАНИЕ!
    Сайт не распространяет и не хранит электронные версии произведений, а занимается лишь лишь предоставлением доступа к создаваемому пользователями каталогу ссылок на торрент-файлы, которые содержат только списки хеш-сумм, убедительная просьба с жалобами обращаться напрямую к пользователю. Файлы для обмена на трекере предоставлены пользователями сайта, и администрация не несёт ответственности за их содержание. Просьба не заливать файлы, защищенные авторскими правами, а также файлы нелегального содержания!


    _________________
    [Профиль] [ЛС]
    Показать сообщения:    
    Ответить на тему

    Текущее время: Сегодня, в 18:15

    Часовой пояс: GMT + 2



    Вы не можете начинать темы
    Вы не можете отвечать на сообщения
    Вы не можете редактировать свои сообщения
    Вы не можете удалять свои сообщения
    Вы не можете голосовать в опросах
    Вы не можете прикреплять файлы к сообщениям
    Вы не можете скачивать файлы