BitTorrentTracker PerecTracker.org
BitTorrentTracker PerecTracker.org
    
Регистрация  ·  Вход
 
 · 
Забыли пароль?

  • Просьба не беспокоить / Do not disturb (Найджел Коул / Nigel Cole) [2016, Великобритания, Комедия, TVRip] VO (Cmert)

    Ответить на тему
     
    Автор Сообщение

    rechyn

    Создавать темы 19-Авг-2016 00:25

           

    [Цитировать]

    Просьба не беспокоить / Do not disturb
    Страна: Великобритания
    Жанр: Комедия
    Год выпуска: 2016
    Продолжительность: 00:43:00
    Перевод: Одноголосый закадровый Cmert по субтитрам М.Васильев
    Cубтитры: нет
    Оригинальная аудиодорожка: нет
    Режиссер: Найджел Коул / Nigel Cole
    В ролях: Кэтрин Тейт, Майлс Джапп, Дилан Эдвардс, Стив Эдж, Шина Гибсон
    Описание: В славном городке Стратфорд-на-Эйвоне все пропитано духом Шекспира. Поэтому, только здесь могла произойти эта история в духе "весь мир - театр, люди в нем - актеры". В самом обычном номере самого обычного отеля под оптимистичным названием "В гостях у Йорика" пересеклись пути нескольких молодых людей, устроивших мальчишник, переживающей кризис в отношениях супружеской пары и двух проституток... А расхлебывать эту кашу пришлось, конечно, сотрудникам отеля.
    Доп. информация: Телевизионный фильм канала Gold TV. Это не сериал (по крайней мере, канал пока не обьявил о намерении сериализовать данный формат), но из-за хронометража в раздел "Зарубежное кино" не пропустят, а запихивать в отдел "короткий метр" не вижу смысла. Там это кино пройдет незамеченным. Здесь больше шансов, что его посмотрит максимальное количество любителей британских комедий.
    Озвучил от сюд: http://perectracker.org/http://perectracker.org/viewtopic.php?t=5160727
    Сэмпл: http://multi-up.com/1114245
    Качество видео: TVRip
    Формат видео: AVI
    Видео: 608x336 (1.81:1), 25 fps, XviD build 50 ~1328 kbps avg, 0.26 bit/pixel
    Аудио: 44.100 kHz, MPEG Layer 3, 2 ch, ~128.00 kbps avg

    MediaInfo

    Смерт.avi
    Format : AVI
    Format/Info : Audio Video Interleave
    File size : 451 MiB
    Duration : 43mn 0s
    Overall bit rate : 1 466 Kbps
    Writing application : VirtualDubMod 1.5.10.2 (build 2540/release)
    Writing library : VirtualDubMod build 2540/release
    Video
    ID : 0
    Format : MPEG-4 Visual
    Format profile : Advanced Simple@L5
    Format settings, BVOP : 2
    Format settings, QPel : No
    Format settings, GMC : No warppoints
    Format settings, Matrix : Default (H.263)
    Codec ID : XVID
    Codec ID/Hint : XviD
    Duration : 43mn 0s
    Bit rate : 1 329 Kbps
    Width : 608 pixels
    Height : 336 pixels
    Display aspect ratio : 16:9
    Frame rate : 25.000 fps
    Color space : YUV
    Chroma subsampling : 4:2:0
    Bit depth : 8 bits
    Scan type : Progressive
    Compression mode : Lossy
    Bits/(Pixel*Frame) : 0.260
    Stream size : 409 MiB (91%)
    Writing library : XviD 1.2.1 (UTC 2008-12-04)
    Audio
    ID : 1
    Format : MPEG Audio
    Format version : Version 1
    Format profile : Layer 3
    Mode : Joint stereo
    Mode extension : MS Stereo
    Codec ID : 55
    Codec ID/Hint : MP3
    Duration : 43mn 0s
    Bit rate mode : Constant
    Bit rate : 128 Kbps
    Channel(s) : 2 channels
    Sampling rate : 44.1 KHz
    Compression mode : Lossy
    Stream size : 39.4 MiB (9%)
    Alignment : Split accross interleaves
    Interleave, duration : 40 ms (1.00 video frame)
    Interleave, preload duratio : 500 ms

    Скриншот c названием фильма

    Скриншоты

    Скачать .torrent

    Скачать торрент-файл бесплатно и на максимальной скорости!

    Как скачивать? · Что такое торрент? · Рейтинг и ограничения

    !ВНИМАНИЕ!
    Сайт не распространяет и не хранит электронные версии произведений, а занимается лишь лишь предоставлением доступа к создаваемому пользователями каталогу ссылок на торрент-файлы, которые содержат только списки хеш-сумм, убедительная просьба с жалобами обращаться напрямую к пользователю. Файлы для обмена на трекере предоставлены пользователями сайта, и администрация не несёт ответственности за их содержание. Просьба не заливать файлы, защищенные авторскими правами, а также файлы нелегального содержания!


    _________________
    [Профиль] [ЛС]
    Показать сообщения:    
    Ответить на тему

    Текущее время: Сегодня, в 04:34

    Часовой пояс: GMT + 2



    Вы не можете начинать темы
    Вы не можете отвечать на сообщения
    Вы не можете редактировать свои сообщения
    Вы не можете удалять свои сообщения
    Вы не можете голосовать в опросах
    Вы не можете прикреплять файлы к сообщениям
    Вы не можете скачивать файлы