BitTorrentTracker PerecTracker.org
BitTorrentTracker PerecTracker.org
    
Регистрация  ·  Вход
 
 · 
Забыли пароль?

  • Финансовый монстр / Money Monster (Джоди Фостер / Jodie Foster) [2016, США, триллер, драма, криминал, BDRip-AVC] Dub + Original + Sub (rus, eng)

    Ответить на тему
     
    Автор Сообщение

    rechyn

    Создавать темы 19-Авг-2016 00:25

           

    [Цитировать]

    Финансовый монстр / Money Monster«Not every conspiracy is a theory»-Страна: США
    Жанр: триллер, драма, криминал
    Год выпуска: 2016
    Продолжительность: 01:38:40
    Перевод: Профессиональный (дублированный) (iTunes)
    Оригинальная аудиодорожка: английский
    Cубтитры: русские (форс., полные), английские (полные, SDH)
    Навигация по главам: есть
    Режиссеры: Джоди Фостер / Jodie Foster
    В ролях: Джордж Клуни, Джулия Робертс, Джек О'Коннелл, Доминик Уэст, Катрина Балф, Джанкарло Эспозито, Кристофер Денэм, Ленни Венито, Кристофер Бауэр, Деннис Буцикарис
    Описание: Сюжет фильма разворачивается вокруг Ли Гейтса, известного телеведущего, чьи финансовые советы сделали его настоящим гуру Уолл-Стрит. Один из зрителей шоу, воспользовавшись неудачным советом Ли, потерял все свое состояние и теперь хочет возмездия. Он берет знаменитость в заложники и тем самым поднимает рейтинги передачи, люди замерли перед экранами в ожидании ответа на вопрос: сколько стоит человеческая жизнь?- -Качество видео: BDRip-AVC (исходник - BDRemux|Money.Monster.2016.REMUX.1080p.BluRay.1080p.AVC.DTS-HD.MA.5.1-iFT)
    Формат видео: MKV
    Видео: x264, 1152x482 (2.40:1), 23,976 fps, ~2385 kbps, 0.179 bit/pixel
    Аудио 1: 48 kHz, AC3 Dolby Digital, 3/2 (L,C,R,l,r) + LFE ch, ~384 kbps [русский]
    Аудио 2: 48 kHz, AC3 Dolby Digital, 3/2 (L,C,R,l,r) + LFE ch, ~384 kbps [английский]
    Формат субтитров: softsub (SRT)

    MediaInfo

    Format : Matroska
    Format version : Version 4 / Version 2
    File size : 2.17 GiB
    Duration : 1h 38mn
    Overall bit rate : 3 155 Kbps
    Movie name : Финансовый монстр / Money Monster (2016) :: AFM ::
    Encoded date : UTC 2016-08-18 13:04:07
    Writing application : mkvmerge v8.3.0 ('Over the Horizon') 32bit
    Writing library : libebml v1.3.1 + libmatroska v1.4.2
    Video
    ID : 1
    Format : AVC
    Format/Info : Advanced Video Codec
    Format profile : High@L4.1
    Format settings, CABAC : Yes
    Format settings, ReFrames : 10 frames
    Codec ID : V_MPEG4/ISO/AVC
    Duration : 1h 38mn
    Bit rate : 2 385 Kbps
    Width : 1 152 pixels
    Height : 482 pixels
    Display aspect ratio : 2.40:1
    Frame rate mode : Constant
    Frame rate : 23.976 fps
    Color space : YUV
    Chroma subsampling : 4:2:0
    Bit depth : 8 bits
    Scan type : Progressive
    Bits/(Pixel*Frame) : 0.179
    Stream size : 1.60 GiB (74%)
    Title : BDRip by AFM [RuTracker.org]
    Writing library : x264 core 148 r2705+54 9f484c1 t_mod_Custom [8-bit@all X86_64]
    Encoding settings : cabac=1 / ref=10 / deblock=1:-2:-2 / analyse=0x3:0x113 / me=umh / subme=10 / psy=1 / fade_compensate=0.00 / psy_rd=1.00:0.00 / mixed_ref=1 / me_range=32 / chroma_me=1 / trellis=2 / 8x8dct=1 / cqm=0 / deadzone=21,11 / fast_pskip=0 / chroma_qp_offset=-2 / threads=6 / lookahead_threads=1 / sliced_threads=0 / nr=0 / decimate=0 / interlaced=0 / bluray_compat=0 / constrained_intra=0 / fgo=0 / bframes=12 / b_pyramid=2 / b_adapt=2 / b_bias=0 / direct=3 / weightb=1 / open_gop=0 / weightp=2 / keyint=250 / keyint_min=23 / scenecut=40 / intra_refresh=0 / rc_lookahead=40 / rc=2pass / mbtree=0 / bitrate=2385 / ratetol=1.0 / qcomp=0.65 / qpmin=0:0:0 / qpmax=69:69:69 / qpstep=4 / cplxblur=20.0 / qblur=0.5 / vbv_maxrate=50000 / vbv_bufsize=62500 / nal_hrd=none / filler=0 / ip_ratio=1.30 / pb_ratio=1.25 / aq=3:0.80 / aq-sensitivity=10.00 / aq-factor=1.00:1.00:1.00 / aq2=0 / aq3=0
    Language : English
    Default : Yes
    Forced : No
    Audio #1
    ID : 2
    Format : AC-3
    Format/Info : Audio Coding 3
    Mode extension : CM (complete main)
    Format settings, Endianness : Big
    Codec ID : A_AC3
    Duration : 1h 38mn
    Bit rate mode : Constant
    Bit rate : 384 Kbps
    Channel(s) : 6 channels
    Channel positions : Front: L C R, Side: L R, LFE
    Sampling rate : 48.0 KHz
    Compression mode : Lossy
    Stream size : 271 MiB (12%)
    Title : Dub, AC3 5.1 ~384 kbps
    Language : Russian
    Default : Yes
    Forced : No
    Audio #2
    ID : 3
    Format : AC-3
    Format/Info : Audio Coding 3
    Mode extension : CM (complete main)
    Format settings, Endianness : Big
    Codec ID : A_AC3
    Duration : 1h 38mn
    Bit rate mode : Constant
    Bit rate : 384 Kbps
    Channel(s) : 6 channels
    Channel positions : Front: L C R, Side: L R, LFE
    Sampling rate : 48.0 KHz
    Compression mode : Lossy
    Stream size : 271 MiB (12%)
    Title : Original, AC3 5.1 ~384 kbps
    Language : English
    Default : No
    Forced : No
    Text #1
    ID : 4
    Format : UTF-8
    Codec ID : S_TEXT/UTF8
    Codec ID/Info : UTF-8 Plain Text
    Title : forced
    Language : Russian
    Default : Yes
    Forced : No
    Text #2
    ID : 5
    Format : UTF-8
    Codec ID : S_TEXT/UTF8
    Codec ID/Info : UTF-8 Plain Text
    Language : Russian
    Default : No
    Forced : No
    Text #3
    ID : 6
    Format : UTF-8
    Codec ID : S_TEXT/UTF8
    Codec ID/Info : UTF-8 Plain Text
    Language : English
    Default : No
    Forced : No
    Text #4
    ID : 7
    Format : UTF-8
    Codec ID : S_TEXT/UTF8
    Codec ID/Info : UTF-8 Plain Text
    Title : SDH
    Language : English
    Default : No
    Forced : No
    Menu
    00:00:00.000 : en:Chapter 01
    00:07:14.225 : en:Chapter 02
    00:12:38.799 : en:Chapter 03
    00:20:08.457 : en:Chapter 04
    00:24:32.179 : en:Chapter 05
    00:31:37.854 : en:Chapter 06
    00:39:52.139 : en:Chapter 07
    00:45:29.101 : en:Chapter 08
    00:51:37.511 : en:Chapter 09
    00:55:39.627 : en:Chapter 10
    00:58:43.019 : en:Chapter 11
    01:06:42.206 : en:Chapter 12
    01:10:27.681 : en:Chapter 13
    01:16:06.228 : en:Chapter 14
    01:19:55.165 : en:Chapter 15
    01:29:35.036 : en:Chapter 16

    Скриншоты

    с названием

    Торрент перезалит - добавлены русские субтитры.
    Скачать .torrent

    Скачать торрент-файл бесплатно и на максимальной скорости!

    Как скачивать? · Что такое торрент? · Рейтинг и ограничения

    !ВНИМАНИЕ!
    Сайт не распространяет и не хранит электронные версии произведений, а занимается лишь лишь предоставлением доступа к создаваемому пользователями каталогу ссылок на торрент-файлы, которые содержат только списки хеш-сумм, убедительная просьба с жалобами обращаться напрямую к пользователю. Файлы для обмена на трекере предоставлены пользователями сайта, и администрация не несёт ответственности за их содержание. Просьба не заливать файлы, защищенные авторскими правами, а также файлы нелегального содержания!


    _________________
    [Профиль] [ЛС]
    Показать сообщения:    
    Ответить на тему

    Текущее время: Сегодня, в 18:28

    Часовой пояс: GMT + 2



    Вы не можете начинать темы
    Вы не можете отвечать на сообщения
    Вы не можете редактировать свои сообщения
    Вы не можете удалять свои сообщения
    Вы не можете голосовать в опросах
    Вы не можете прикреплять файлы к сообщениям
    Вы не можете скачивать файлы