BitTorrentTracker PerecTracker.org
BitTorrentTracker PerecTracker.org
    
Регистрация  ·  Вход
 
 · 
Забыли пароль?

  • 21 ночь с Патти / Vingt et une nuits avec Pattie / 21 Nights with Pattie (Арно Ларьё / Arnaud Larrieu, Жан-Мари Ларьё / Jean-Marie Larrieu) [2015, Франция, Комедия, BDRip] AVO (Алексеев)

    Ответить на тему
     
    Автор Сообщение

    Light

    Создавать темы 19-Авг-2016 00:25

           

    [Цитировать]

    21 ночь с Патти / Vingt et une nuits avec Pattie / 21 Nights with Pattie
    Страна: Франция
    Студия: Arena Films, Pyramide Productions, Canal+, Orange Cinéma Séries, Arte / Cofinova 10, Région Languedoc-Roussillon, CNC, Département de l'Aude
    Жанр: Комедия
    Год выпуска: 2015
    Продолжительность: 01:55:10
    Перевод: Авторский (одноголосый закадровый) Антон Алексеев
    Cубтитры: нет
    Оригинальная аудиодорожка: нет
    Режиссер: Арно Ларьё / Arnaud Larrieu, Жан-Мари Ларьё / Jean-Marie Larrieu
    В ролях: Изабель Карре, Карин Вьяр, Андре Дюссолье, Серхи Лопес, Лоран Пуатрено, Дени Лаван, Филипп Реббо, Жюль Ритманик, Матильда Монньер, Роланд Бонналь
    Описание: Разгар лета. Парижанка Каролин, 40-летняя глава семейства, приезжает в небольшую деревню на юг Франции. Ей необходимо срочно организовать похороны своей матери, с которой она не особенно общалась. На месте она знакомится с беззаботной Патти, которая любит рассказывать о своих любовных похождениях с местными мужчинами. Пока вся долина готовится к традиционному празднику, тело матери Каролин таинственным образом исчезает.
    Дополнительная информация:
    Автор релиза - ylnian
    Заказ перевода у Антона Алексеева (июнь 2016) - ylnian
    За сборку дороги спасибо rammzez
    Источник для рипа - Blu-Ray (FRA) - 21.Nuits.Avec.Pattie.2015.FRENCH.1080p.BluRay.REMUX.DTS-HDMA.AVC-HUNTER


    Сэмпл: https://yadi.sk/i/l_c1PLMCuK5GX
    Качество видео: BDRip
    Формат видео: AVI
    Видео: XviD, 720x544 (4:3), 23.976 fps, 1359 kbps, 0.145 bit/pixel
    Аудио: Русский AC3, 48000 Гц, 6ch, 448 kbps

    MediaInfo

    Общее
    Полное имя : B:\Vingt.et.une.nuits.avec.Pattie.2015.BDRip-ylnian.avi
    Формат : AVI
    Формат/Информация : Audio Video Interleave
    Размер файла : 1,46 Гбайт
    Продолжительность : 1 ч. 55 м.
    Общий поток : 1816 Кбит/сек
    Программа кодирования : VirtualDubMod 1.5.10.2 (build 2540/release)
    Библиотека кодирования : VirtualDubMod build 2540/release
    Видео
    Идентификатор : 0
    Формат : MPEG-4 Visual
    Профиль формата : Advanced Simple@L5
    Параметр BVOP формата : 1
    Параметр QPel формата : Нет
    Параметр GMC формата : Без точки перехода
    Параметр матрицы формата : Default (MPEG)
    Идентификатор кодека : XVID
    Идентификатор кодека/Подсказка : XviD
    Продолжительность : 1 ч. 55 м.
    Битрейт : 1359 Кбит/сек
    Ширина : 720 пикселей
    Высота : 544 пикселя
    Соотношение сторон : 4:3
    Частота кадров : 23,976 (24000/1001) кадра/сек
    Цветовое пространство : YUV
    Субдискретизация насыщенности : 4:2:0
    Битовая глубина : 8 бит
    Тип развёртки : Прогрессивная
    Метод сжатия : С потерями
    Бит/(Пиксели*Кадры) : 0.145
    Размер потока : 1,09 Гбайт (75%)
    Библиотека кодирования : XviD 67
    Аудио
    Идентификатор : 1
    Формат : AC-3
    Формат/Информация : Audio Coding 3
    Расширение режима : CM (complete main)
    Параметр Endianness формата : Big
    Идентификатор кодека : 2000
    Продолжительность : 1 ч. 55 м.
    Вид битрейта : Постоянный
    Битрейт : 448 Кбит/сек
    Каналы : 6 каналов
    Расположение каналов : Front: L C R, Side: L R, LFE
    Частота : 48,0 КГц
    Частота кадров : 31,250 кадров/сек (1536 spf)
    Метод сжатия : С потерями
    Размер потока : 369 Мбайт (25%)
    Выравнивание : Разделение по промежуткам
    Продолжительность промежутка : 42 мс. (1,00 видеокадр)
    Время предзагрузки промежутка : 500 мс.
    Заголовок : AVO - Алексеев

    Скриншот c названием фильма

    Скриншоты

    Скачать .torrent

    Скачать торрент-файл бесплатно и на максимальной скорости!

    Как скачивать? · Что такое торрент? · Рейтинг и ограничения

    !ВНИМАНИЕ!
    Сайт не распространяет и не хранит электронные версии произведений, а занимается лишь лишь предоставлением доступа к создаваемому пользователями каталогу ссылок на торрент-файлы, которые содержат только списки хеш-сумм, убедительная просьба с жалобами обращаться напрямую к пользователю. Файлы для обмена на трекере предоставлены пользователями сайта, и администрация не несёт ответственности за их содержание. Просьба не заливать файлы, защищенные авторскими правами, а также файлы нелегального содержания!


    _________________
    [Профиль] [ЛС]
    Показать сообщения:    
    Ответить на тему

    Текущее время: Сегодня, в 12:03

    Часовой пояс: GMT + 2



    Вы не можете начинать темы
    Вы не можете отвечать на сообщения
    Вы не можете редактировать свои сообщения
    Вы не можете удалять свои сообщения
    Вы не можете голосовать в опросах
    Вы не можете прикреплять файлы к сообщениям
    Вы не можете скачивать файлы