BitTorrentTracker PerecTracker.org
BitTorrentTracker PerecTracker.org
    
Регистрация  ·  Вход
 
 · 
Забыли пароль?

  • Соседи. На тропе войны 2 / Neighbors 2: Sorority Rising (Николас Столлер / Nicholas Stoller ) [2016, США, Комедия, WEB-DL, HD (720p)] DUB + Original

    Ответить на тему
     
    Автор Сообщение

    rechyn

    Создавать темы 18-Авг-2016 16:01

           

    [Цитировать]

    Соседи. На тропе войны 2 / Neighbors 2: Sorority Rising
    «New neighbors»
    5.194 / 10 6.00 / 10
    -Год выпуска: 2016
    Страна: США
    Жанр: Комедия
    Продолжительность: 01:32:44
    Перевод: Дублированный (iTunes)
    Оригинальная аудиодорожка: Есть
    Cубтитры: Нет
    Режиссёр: Николас Столлер
    Сценарий: Эндрю Дж. Коэн, Брендан О’Брайэн, Николас Столлер
    Продюсер: Эван Голдберг, Сет Роген, Джеймс Уивер
    Оператор: Брэндон Трост
    Композитор: Майкл Эндрюс
    Художник: Тереза Аврам, Кейт Бэнгс, Эрика То
    Монтаж: Зене Бэйкер, Пек Прайор, Майкл А. Веббер
    В ролях: Сет Роген, Зак Эфрон, Роуз Бирн, Хлоя Грейс Морец, Айк Баринхолц, Кирси Клемонс, Дэйв Франко, Джеррод Кармайкл, Кристофер Минц-Плассе, Бини Фелдштейн
    Бюджет: $35 000 000
    Сборы в США: $55 340 730
    Сборы в мире: + $52 551 344 = $107 892 074
    Сборы в России: $674 754
    Мировая премьера: 26 апреля 2016
    Премьера (РФ): 23 июня 2016, «UPI»
    Описание: На этот раз в дом по соседству с Маком и Келли въезжает университетский женский клуб. Чтобы разобраться с новыми соседями, которые не дают им покоя, Мак и Келли решают обратиться за помощью к их бывшему врагу — Тедди Сандерсу.-Качество исходника: WEB-DL 720p (NNMClub)
    Качество: WEB-DL
    Тип: HD (720p)
    Контейнер: M4V
    Видео: H.264, 1280x530, 2.40:1, 4 003 Kbps, 23.976 fps
    Аудио 1: Русский/Дублированный (iTunes), AAC / 2.0 / 156 Kbps / 48.0 KHz
    Аудио 2: Английский/Оригинальная дорожка , AAC / 2.0 / 155 Kbps / 48.0 KHz
    Аудио 3: Русский/Дублированный (iTunes), AC-3 / 5.1 / 384 Kbps / 48.0 KHz
    Аудио 4: Английский/Оригинальная дорожка , AC-3 / 5.1 / 384 Kbps / 48.0 KHz
    -

    iTunes Meta Tags

    Sort Name: Neighbors 2: Sorority Rising
    XID: Apple:vendor_id:2016-891509
    contentID: 1109606111
    Copyright: © 2016 Universal Studios. All Rights Reserved.
    Screenwriters: Эндрю Дж. Коэн, Брендан О’Брайэн, Николас Столлер
    Producers: Эван Голдберг, Сет Роген, Джеймс Уивер
    Director: Николас Столлер
    Cast: Сет Роген, Зак Эфрон, Роуз Бирн, Хлоя Грейс Морец, Айк Баринхолц, Кирси Клемонс, Дэйв Франко, Джеррод Кармайкл, Кристофер Минц-Плассе, Бини Фелдштейн
    Studio: Universal Pictures
    Rating: 5
    Long Description: На этот раз в дом по соседству с Маком и Келли въезжает университетский женский клуб. Чтобы разобраться с новыми соседями, которые не дают им покоя, Мак и Келли решают обратиться за помощью к их бывшему врагу - Тедди Сандерсу.
    Description: На этот раз в дом по соседству с Маком и Келли въезжает университетский женский клуб. Чтобы разобраться с новыми соседями, которые не дают им покоя, Мак и Келли решают обратиться за помощью к их бывшему врагу - Тедди Сандерсу.
    Release Date: 2016-04-26T08:00:00Z
    Genre: Comedy
    Artist: Nicholas Stoller
    Name: Neighbors 2: Sorority Rising

    MediaInfo

    General
    Complete name : /Users/imac/HandBrake/Neighbors.2.Sorority.Rising.WEB-DL.720p.m4v
    Format : MPEG-4
    Codec ID : M4V
    File size : 3.30 GiB
    Duration : 1h 32mn
    Overall bit rate mode : Variable
    Overall bit rate : 5 089 Kbps
    Movie name : Neighbors 2: Sorority Rising
    Performer : Nicholas Stoller
    Director : Николас Столлер
    Actor : Сет Роген / Зак Эфрон / Роуз Бирн / Хлоя Грейс Морец / Айк Баринхолц / Кирси Клемонс / Дэйв Франко / Джеррод Кармайкл / Кристофер Минц-Плассе / Бини Фелдштейн
    Screenplay by : Эндрю Дж. Коэн / Брендан О’Брайэн / Николас Столлер
    Producer : Эван Голдберг / Сет Роген / Джеймс Уивер
    Production studio : Universal Pictures
    Genre : Comedy
    ContentType : Short Film
    Description : На этот раз в дом по соседству с Маком и Келли въезжает университетский женский клуб. Чтобы разобраться с новыми соседями, которые не дают им покоя, Мак и Келли решают обратиться за помощью к их бывшему врагу - Тедди Сандерсу.
    Recorded date : UTC 2016-04-26 08:00:00
    Encoded date : UTC 2016-08-18 09:15:37
    Tagged date : UTC 2016-08-18 10:23:38
    Copyright : © 2016 Universal Studios. All Rights Reserved.
    Cover : Yes
    Rating : None
    Title/Sort : Neighbors 2: Sorority Rising
    LongDescription : На этот раз в дом по соседству с Маком и Келли въезжает университетский женский клуб. Чтобы разобраться с новыми соседями, которые не дают им покоя, Мак и Келли решают обратиться за помощью к их бывшему врагу - Тедди Сандерсу.
    HDVideo : Yes
    AppleStoreCatalogID : 1109606111
    Vendor : Apple:vendor_id:2016-891509
    ContentRating : mpaa|R|400|
    Video #1
    ID : 1
    Format : AVC
    Format/Info : Advanced Video Codec
    Format profile : Main@L3.1
    Format settings, CABAC : No
    Format settings, ReFrames : 2 frames
    Codec ID : avc1
    Codec ID/Info : Advanced Video Coding
    Duration : 1h 32mn
    Bit rate : 4 003 Kbps
    Width : 1 280 pixels
    Height : 530 pixels
    Display aspect ratio : 2.40:1
    Frame rate mode : Variable
    Frame rate : 23.976 fps
    Minimum frame rate : 23.810 fps
    Maximum frame rate : 24.390 fps
    Color space : YUV
    Chroma subsampling : 4:2:0
    Bit depth : 8 bits
    Scan type : Progressive
    Bits/(Pixel*Frame) : 0.246
    Stream size : 2.59 GiB (79%)
    Title : Main Program
    Language : English
    Encoded date : UTC 2016-08-18 09:15:37
    Tagged date : UTC 2016-08-18 09:15:49
    Color range : Limited
    Color primaries : BT.709
    Transfer characteristics : BT.709
    Matrix coefficients : BT.709
    Video #2
    ID : 7
    Format : JPEG
    Codec ID : jpeg
    Duration : 1h 32mn
    Bit rate mode : Variable
    Bit rate : 1 557 bps
    Width : 640 pixels
    Height : 265 pixels
    Display aspect ratio : 2.40:1
    Frame rate mode : Variable
    Frame rate : 0.004 fps
    Minimum frame rate : 0.003 fps
    Maximum frame rate : 0.006 fps
    Color space : YUV
    Chroma subsampling : 4:2:0
    Bit depth : 8 bits
    Compression mode : Lossy
    Bits/(Pixel*Frame) : 2.295
    Stream size : 950 KiB (0%)
    Title : Chapter Images
    Language : English
    Encoded date : UTC 2016-08-18 09:15:53
    Tagged date : UTC 2016-08-18 09:15:53
    Audio #1
    ID : 2
    Format : AAC
    Format/Info : Advanced Audio Codec
    Format profile : LC
    Codec ID : 40
    Duration : 1h 32mn
    Bit rate mode : Variable
    Bit rate : 156 Kbps
    Maximum bit rate : 256 Kbps
    Channel(s) : 2 channels
    Channel positions : Front: L R
    Sampling rate : 48.0 KHz
    Compression mode : Lossy
    Stream size : 103 MiB (3%)
    Title : Russian Stereo
    Language : Russian
    Encoded date : UTC 2016-08-18 09:15:37
    Tagged date : UTC 2016-08-18 09:15:45
    Audio #2
    ID : 3
    Format : AAC
    Format/Info : Advanced Audio Codec
    Format profile : LC
    Codec ID : 40
    Duration : 1h 32mn
    Bit rate mode : Variable
    Bit rate : 155 Kbps
    Maximum bit rate : 258 Kbps
    Channel(s) : 2 channels
    Channel positions : Front: L R
    Sampling rate : 48.0 KHz
    Compression mode : Lossy
    Stream size : 103 MiB (3%)
    Title : English Stereo
    Language : English
    Encoded date : UTC 2016-08-18 09:15:37
    Tagged date : UTC 2016-08-18 09:15:45
    Audio #3
    ID : 4
    Format : AC-3
    Format/Info : Audio Coding 3
    Mode extension : CM (complete main)
    Format settings, Endianness : Big
    Codec ID : ac-3
    Duration : 1h 32mn
    Bit rate mode : Constant
    Bit rate : 384 Kbps
    Channel(s) : 6 channels
    Channel positions : Front: L C R, Side: L R, LFE
    Sampling rate : 48.0 KHz
    Bit depth : 16 bits
    Compression mode : Lossy
    Stream size : 254 MiB (8%)
    Title : Russian DD 5.1
    Language : Russian
    Encoded date : UTC 2016-08-18 09:15:37
    Tagged date : UTC 2016-08-18 09:15:45
    Audio #4
    ID : 5
    Format : AC-3
    Format/Info : Audio Coding 3
    Mode extension : CM (complete main)
    Format settings, Endianness : Big
    Codec ID : ac-3
    Duration : 1h 32mn
    Bit rate mode : Constant
    Bit rate : 384 Kbps
    Channel(s) : 6 channels
    Channel positions : Front: L C R, Side: L R, LFE
    Sampling rate : 48.0 KHz
    Bit depth : 16 bits
    Compression mode : Lossy
    Stream size : 254 MiB (8%)
    Title : English DD 5.1
    Language : English
    Encoded date : UTC 2016-08-18 09:15:37
    Tagged date : UTC 2016-08-18 09:15:45
    Menu #1
    00:00:00.000 : 1
    00:06:32.000 : 2
    00:09:52.000 : 3
    00:13:07.000 : 4
    00:17:39.000 : 5
    00:22:15.000 : 6
    00:27:37.000 : 7
    00:31:58.000 : 8
    00:38:37.000 : 9
    00:44:46.000 : 10
    00:50:44.000 : 11
    00:54:34.000 : 12
    01:00:56.000 : 13
    01:04:16.000 : 14
    01:08:28.000 : 15
    01:12:56.000 : 16
    01:16:36.000 : 17
    01:20:47.000 : 18
    01:23:21.000 : 19
    01:26:05.000 : 20
    Menu #2
    ID : 6
    Codec ID : text
    Duration : 1h 32mn
    Language : English
    Encoded date : UTC 2016-08-18 09:15:50
    Tagged date : UTC 2016-08-18 09:15:50
    00:00:00.000 : 1
    00:06:32.000 : 2
    00:09:52.000 : 3
    00:13:07.000 : 4
    00:17:39.000 : 5
    00:22:15.000 : 6
    00:27:37.000 : 7
    00:31:58.000 : 8
    00:38:37.000 : 9
    00:44:46.000 : 10
    00:50:44.000 : 11
    00:54:34.000 : 12
    01:00:56.000 : 13
    01:04:16.000 : 14
    01:08:28.000 : 15
    01:12:56.000 : 16
    01:16:36.000 : 17
    01:20:47.000 : 18
    01:23:21.000 : 19
    01:26:05.000 : 20
    Bit rate mode : VBR

    Скриншоты

    -

    Релиз подготовлен для просмотра на Apple TV, iPad, iPhone, iPod Touch.
    Для просмотра данного релиза на компьютере с ОС Windows рекомендуется использовать VLC media player
    Скачать .torrent

    Скачать торрент-файл бесплатно и на максимальной скорости!

    Как скачивать? · Что такое торрент? · Рейтинг и ограничения

    !ВНИМАНИЕ!
    Сайт не распространяет и не хранит электронные версии произведений, а занимается лишь лишь предоставлением доступа к создаваемому пользователями каталогу ссылок на торрент-файлы, которые содержат только списки хеш-сумм, убедительная просьба с жалобами обращаться напрямую к пользователю. Файлы для обмена на трекере предоставлены пользователями сайта, и администрация не несёт ответственности за их содержание. Просьба не заливать файлы, защищенные авторскими правами, а также файлы нелегального содержания!


    _________________
    [Профиль] [ЛС]
    Показать сообщения:    
    Ответить на тему

    Текущее время: Сегодня, в 22:03

    Часовой пояс: GMT + 2



    Вы не можете начинать темы
    Вы не можете отвечать на сообщения
    Вы не можете редактировать свои сообщения
    Вы не можете удалять свои сообщения
    Вы не можете голосовать в опросах
    Вы не можете прикреплять файлы к сообщениям
    Вы не можете скачивать файлы