BitTorrentTracker PerecTracker.org
BitTorrentTracker PerecTracker.org
    
Регистрация  ·  Вход
 
 · 
Забыли пароль?

  • Дуэль / The Duel (Киран Дарси-Смит / Kieran Darcy-Smith) [2016, США, Драма, вестерн, HDRip] MVO (Paradox & Omskbird records)

    Ответить на тему
     
    Автор Сообщение

    rechyn

    Создавать темы 17-Авг-2016 20:30

           

    [Цитировать]

    Дуэль / The Duel
    Страна: США
    Жанр: драма, вестерн
    Год выпуска: 2016
    Продолжительность: 01:50:09
    Перевод: Любительский (многоголосый, закадровый) Paradox & Omskbird records - без рекламы
    Cубтитры: нет
    Режиссер: Киран Дарси-Смит / Kieran Darcy-Smith
    В ролях: Вуди Харрельсон, Лиам Хемсворт, Алиси Брага, Уильям Сэдлер, Эмори Коэн, Сью-Линн Ансари, Рафаэль Сбардж, Бенедикт Сэмюэл, Кристофер Берри, Керри Кехилл, Хосе Суньига, Дуглас М. Гриффин, Ким Хидальго, Фелисити Прайс, Сью Рок, Кристофер Джеймс Бэйкер, Джон МакКоннелл, Джиллз Мэттхи, Джейсон Картер, Лоуренс Тернер, Джош Уайтс, Келли Беллини, Дэвид Борн, Джимми Ли мл., Джонни МакПайл, Мэттью Фриас, Калеб Дж. Таггард
    Описание: Фильм расскажет о техасском рейнджере Дэвиде, которого заслали во фронтир с целью расследования серии убийств. На месте ему предстоит познакомиться с Авраамом — проповедником, держащим в паническом страхе всю округу.
    Релиз от Megapeer

    Качество видео: HDRip
    Формат видео: AVI
    Видео: 688x288 (2.39:1), 23.976 fps, XviD build 73 ~813 kbps avg, 0.17 bit/pixel
    Аудио: 48 kHz, MPEG Layer 3, 2 ch, ~128.00 kbps avg - Paradox & Omskbird records

    MediaInfo

    ОбщееПолное имя : D:\The.Duel.2016.HDRip.L.745MB.MegaPeer.aviФормат : AVIФормат/Информация : Audio Video InterleaveРазмер файла : 746 МбайтПродолжительность : 1 ч. 50 м.Общий поток : 947 Кбит/сек
    ВидеоИдентификатор : 0Формат : MPEG-4 VisualПрофиль формата : Advanced Simple@L5Параметр BVOP формата : 1Параметр QPel формата : НетПараметр GMC формата : Без точки переходаПараметр матрицы формата : ВыборочнаяИдентификатор кодека : XVIDИдентификатор кодека/Подсказка : XviDПродолжительность : 1 ч. 50 м.Битрейт : 813 Кбит/секШирина : 688 пикселейВысота : 288 пикселейСоотношение сторон : 2,40:1Частота кадров : 23,976 (24000/1001) кадра/секЦветовое пространство : YUVСубдискретизация насыщенности : 4:2:0Битовая глубина : 8 битТип развёртки : ПрогрессивнаяМетод сжатия : С потерямиБит/(Пиксели*Кадры) : 0.171Размер потока : 640 Мбайт (86%)Библиотека кодирования : XviD 73
    АудиоИдентификатор : 1Формат : MPEG AudioВерсия формата : Version 1Профиль формата : Layer 3Режим : Joint stereoРасширение режима : MS StereoИдентификатор кодека : 55Идентификатор кодека/Подсказка : MP3Продолжительность : 1 ч. 50 м.Вид битрейта : ПостоянныйБитрейт : 128 Кбит/секКаналы : 2 каналаЧастота : 48,0 КГцМетод сжатия : С потерямиРазмер потока : 101 Мбайт (14%)Выравнивание : Соединение по промежуткамПродолжительность промежутка : 167 мс. (4,00 видеокадра)Время предзагрузки промежутка : 216 мс.Заголовок : Paradox & Omskbird recordsБиблиотека кодирования : LAME3.99rНастройки программы : -m j -V 4 -q 2 -lowpass 17 -b 128

    Скриншоты

    Скачать .torrent

    Скачать торрент-файл бесплатно и на максимальной скорости!

    Как скачивать? · Что такое торрент? · Рейтинг и ограничения

    !ВНИМАНИЕ!
    Сайт не распространяет и не хранит электронные версии произведений, а занимается лишь лишь предоставлением доступа к создаваемому пользователями каталогу ссылок на торрент-файлы, которые содержат только списки хеш-сумм, убедительная просьба с жалобами обращаться напрямую к пользователю. Файлы для обмена на трекере предоставлены пользователями сайта, и администрация не несёт ответственности за их содержание. Просьба не заливать файлы, защищенные авторскими правами, а также файлы нелегального содержания!


    _________________
    [Профиль] [ЛС]
    Показать сообщения:    
    Ответить на тему

    Текущее время: Сегодня, в 00:07

    Часовой пояс: GMT + 2



    Вы не можете начинать темы
    Вы не можете отвечать на сообщения
    Вы не можете редактировать свои сообщения
    Вы не можете удалять свои сообщения
    Вы не можете голосовать в опросах
    Вы не можете прикреплять файлы к сообщениям
    Вы не можете скачивать файлы