Register  ·  Log in
Forgot password?

  • Эффект Лазаря / The Lazarus Effect (Дэвид Гелб / David Gelb) [2015, США, триллер, ужасы, BDRip] Dub

    Reply to topic
    Author Message


    Post 17-Aug-2016 21:30



    Эффект Лазаря / The Lazarus Effect
    Страна: США
    Жанр: триллер, ужасы
    Год выпуска: 2015
    Продолжительность: 01:23:11
    Перевод: Профессиональный (дублированный)
    Субтитры: нет
    Оригинальная аудиодорожка: нет
    Режиссер: Дэвид Гелб / David Gelb
    В ролях: Марк Дюпласс (Frank), Оливия Уайлд (Zoe), Сара Болгер (Eva), Эван Питерс (Clay), Дональд Гловер (Niko), Рэй Уайз (Mr. Wallace), Скотт Шелдон (Security Guard), Эмили Келавос (Little Girl), Джеймс Эрл (Security Guard Terrence), Эми Акино (President Dalley), Шон Т. Кришнан (Lawyer)
    Команда любознательных студентов узнает секрет воскрешения людей из мертвых. Однако их открытие приводит к страшным последствиям.
    Семпл/Все раздачи фильма
    Качество видео: BDRip
    Формат видео: AVI
    Видео: 1107 Kbps, 640x272, 23.976 fps, XviD
    Аудио: 128 Kbps, 48 KHz, 2 ch, MP3 Дубляж


    Complete name : E:\THE_LAZARUS_EFFECT_2015.avi
    Format : AVI
    Format/Info : Audio Video Interleave
    File size : 740 MiB
    Duration : 1h 23mn
    Overall bit rate : 1 244 Kbps
    Writing application : VirtualDubMod | || (build 2550/release)
    Writing library : VirtualDubMod build 2550/release
    ID : 0
    Format : MPEG-4 Visual
    Format profile : Advanced Simple@L5
    Format settings, BVOP : Yes
    Format settings, QPel : No
    Format settings, GMC : No warppoints
    Format settings, Matrix : Default (MPEG)
    Codec ID : XVID
    Codec ID/Hint : XviD
    Duration : 1h 23mn
    Bit rate : 1 107 Kbps
    Width : 640 pixels
    Height : 272 pixels
    Display aspect ratio : 2.35:1
    Frame rate : 23.976 fps
    Resolution : 8 bits
    Colorimetry : 4:2:0
    Scan type : Progressive
    Bits/(Pixel*Frame) : 0.265
    Stream size : 659 MiB (89%)
    Writing library : XviD 73
    ID : 1
    Format : MPEG Audio
    Format version : Version 1
    Format profile : Layer 3
    Mode : Joint stereo
    Format_Settings_ModeExtension : MS Stereo
    Codec ID : 55
    Codec ID/Hint : MP3
    Duration : 1h 23mn
    Bit rate mode : Constant
    Bit rate : 128 Kbps
    Channel(s) : 2 channels
    Sampling rate : 48.0 KHz
    Stream size : 76.2 MiB (10%)
    Alignment : Aligned on interleaves
    Interleave, duration : 42 ms (1.00 video frame)
    Interleave, preload duration : 504 ms
    Writing library : LAME3.97


    Download .torrent

    Download free and at maximum speed!

    How to Download? · What is a torrent? · Ratings and Limitations

    The site does not extend and does not store electronic(digital) versions of products, and only gives access to a reference catalogue created by users on torrent-files which contain only lists of the hash-sums, the earnest entreaty, with complaints(abuse) to access directly to the user. Files for an exchange on tracker are given by users of a site, and the administration does not bear the responsibility for their maintenance. The request to not fill in the files protected by copyrights, and also files of the illegal maintenance!

    [Profile] [PM]
    Display posts from previous:    
    Reply to topic

    The time now is: Today 18:23

    All times are GMT + 3 Hours

    You cannot post new topics in this forum
    You cannot reply to topics in this forum
    You cannot edit your posts in this forum
    You cannot delete your posts in this forum
    You cannot vote in polls in this forum
    You cannot attach files in this forum
    You cannot download files in this forum