BitTorrentTracker PerecTracker.org
BitTorrentTracker PerecTracker.org
    
Регистрация  ·  Вход
 
 · 
Забыли пароль?

  • Эффект Лазаря / The Lazarus Effect (Дэвид Гелб / David Gelb) [2015, США, триллер, ужасы, BDRip] Dub

    Ответить на тему
     
    Автор Сообщение

    Light

    Создавать темы 17-Авг-2016 20:30

           

    [Цитировать]

    Эффект Лазаря / The Lazarus Effect
    Страна: США
    Жанр: триллер, ужасы
    Год выпуска: 2015
    Продолжительность: 01:23:11
    Перевод: Профессиональный (дублированный)
    Субтитры: нет
    Оригинальная аудиодорожка: нет
    Режиссер: Дэвид Гелб / David Gelb
    В ролях: Марк Дюпласс (Frank), Оливия Уайлд (Zoe), Сара Болгер (Eva), Эван Питерс (Clay), Дональд Гловер (Niko), Рэй Уайз (Mr. Wallace), Скотт Шелдон (Security Guard), Эмили Келавос (Little Girl), Джеймс Эрл (Security Guard Terrence), Эми Акино (President Dalley), Шон Т. Кришнан (Lawyer)
    Описание:
    Команда любознательных студентов узнает секрет воскрешения людей из мертвых. Однако их открытие приводит к страшным последствиям.
    Семпл/Все раздачи фильма
    Исходник -- THE_LAZARUS_EFFECT_REMUX_HDCLUB (HDCLUB)
    Качество видео: BDRip
    Формат видео: AVI
    Видео: 1107 Kbps, 640x272, 23.976 fps, XviD
    Аудио: 128 Kbps, 48 KHz, 2 ch, MP3 Дубляж

    МедиаИнфо

    General
    Complete name : E:\THE_LAZARUS_EFFECT_2015.avi
    Format : AVI
    Format/Info : Audio Video Interleave
    File size : 740 MiB
    Duration : 1h 23mn
    Overall bit rate : 1 244 Kbps
    Writing application : VirtualDubMod 1.5.10.3 | www.virtualdub-fr.org || (build 2550/release)
    Writing library : VirtualDubMod build 2550/release
    Video
    ID : 0
    Format : MPEG-4 Visual
    Format profile : Advanced Simple@L5
    Format settings, BVOP : Yes
    Format settings, QPel : No
    Format settings, GMC : No warppoints
    Format settings, Matrix : Default (MPEG)
    Codec ID : XVID
    Codec ID/Hint : XviD
    Duration : 1h 23mn
    Bit rate : 1 107 Kbps
    Width : 640 pixels
    Height : 272 pixels
    Display aspect ratio : 2.35:1
    Frame rate : 23.976 fps
    Resolution : 8 bits
    Colorimetry : 4:2:0
    Scan type : Progressive
    Bits/(Pixel*Frame) : 0.265
    Stream size : 659 MiB (89%)
    Writing library : XviD 73
    Audio
    ID : 1
    Format : MPEG Audio
    Format version : Version 1
    Format profile : Layer 3
    Mode : Joint stereo
    Format_Settings_ModeExtension : MS Stereo
    Codec ID : 55
    Codec ID/Hint : MP3
    Duration : 1h 23mn
    Bit rate mode : Constant
    Bit rate : 128 Kbps
    Channel(s) : 2 channels
    Sampling rate : 48.0 KHz
    Stream size : 76.2 MiB (10%)
    Alignment : Aligned on interleaves
    Interleave, duration : 42 ms (1.00 video frame)
    Interleave, preload duration : 504 ms
    Writing library : LAME3.97

    Скриншоты

    Скачать .torrent

    Скачать торрент-файл бесплатно и на максимальной скорости!

    Как скачивать? · Что такое торрент? · Рейтинг и ограничения

    !ВНИМАНИЕ!
    Сайт не распространяет и не хранит электронные версии произведений, а занимается лишь лишь предоставлением доступа к создаваемому пользователями каталогу ссылок на торрент-файлы, которые содержат только списки хеш-сумм, убедительная просьба с жалобами обращаться напрямую к пользователю. Файлы для обмена на трекере предоставлены пользователями сайта, и администрация не несёт ответственности за их содержание. Просьба не заливать файлы, защищенные авторскими правами, а также файлы нелегального содержания!


    _________________
    [Профиль] [ЛС]
    Показать сообщения:    
    Ответить на тему

    Текущее время: Сегодня, в 12:14

    Часовой пояс: GMT + 2



    Вы не можете начинать темы
    Вы не можете отвечать на сообщения
    Вы не можете редактировать свои сообщения
    Вы не можете удалять свои сообщения
    Вы не можете голосовать в опросах
    Вы не можете прикреплять файлы к сообщениям
    Вы не можете скачивать файлы