Register  ·  Log in
Forgot password?

  • Мобильник / Cell (Тод «Кип» Уильямс / Tod «Kip» Williams) [2016, США, ужасы, фантастика, триллер, BDRip] Dub (iTunes)

    Reply to topic
    Author Message


    Post 16-Aug-2016 17:17



    Мобильник / Cell
    Страна: США
    Жанр: ужасы, фантастика, триллер
    Год выпуска: 2016
    Продолжительность: 01:37:25
    Перевод: Профессиональный (дублированный) iTunes
    Оригинальная аудиодорожка: нет
    Режиссер: Тод «Кип» Уильямс / Tod «Kip» Williams
    В ролях: Оуэн Тиг, Сэмюэл Л. Джексон, Джон Кьюсак, Изабель Фурман, Стейси Кич, Джошуа Микель, Ллойд Кауфман, Алекс тер Авест, Майкл Бисли, Гриффин Фриман
    Описание: История художника Клайтона Ридделла, становящегося свидетелем разрушительного действия некоего опасного импульса, источающегося сотовыми телефонами (скорость его распространения невероятно высока) и превращающего попавших под его влияние людей в безумцев. В компании нескольких незараженных героев он отправляется на поиски своей супруги и сына, чтобы выяснить, удалось ли спастись его семье.

    Автор рипа: Sem-te
    Релиз от:
    Качество видео: BDRip (Исходник: Кинозал / Blu-Ray Remux / 1080p)
    Формат видео: AVI
    Видео: 720x304 (2.37:1), 23.976 fps, XviD build 73 ~1755 kbps avg, 0.33 bit/pixel
    Аудио 1: 48 kHz, AC3 Dolby Digital, 3/2 (L,C,R,l,r) + LFE ch, ~384 kbps | Dub
    Размер: 1497.47 Mb (1/3 DVD-R)


    Format : AVI
    Format/Info : Audio Video Interleave
    File size : 1.46 GiB
    Duration : 1h 37mn
    Overall bit rate : 2 149 Kbps
    Writing application : VirtualDubMod | || (build 2550/release)
    Writing library : VirtualDubMod build 2550/release
    ID : 0
    Format : MPEG-4 Visual
    Format profile : Advanced Simple@L5
    Format settings, BVOP : 1
    Format settings, QPel : No
    Format settings, GMC : No warppoints
    Format settings, Matrix : Custom
    Codec ID : XVID
    Codec ID/Hint : XviD
    Duration : 1h 37mn
    Bit rate : 1 756 Kbps
    Width : 720 pixels
    Height : 304 pixels
    Display aspect ratio : 2.35:1
    Frame rate : 23.976 fps
    Color space : YUV
    Chroma subsampling : 4:2:0
    Bit depth : 8 bits
    Scan type : Progressive
    Compression mode : Lossy
    Bits/(Pixel*Frame) : 0.335
    Stream size : 1.19 GiB (82%)
    Writing library : XviD 73
    ID : 1
    Format : AC-3
    Format/Info : Audio Coding 3
    Mode extension : CM (complete main)
    Format settings, Endianness : Big
    Codec ID : 2000
    Duration : 1h 37mn
    Bit rate mode : Constant
    Bit rate : 384 Kbps
    Channel(s) : 6 channels
    Channel positions : Front: L C R, Side: L R, LFE
    Sampling rate : 48.0 KHz
    Bit depth : 16 bits
    Compression mode : Lossy
    Stream size : 268 MiB (18%)
    Alignment : Split accross interleaves
    Interleave, duration : 42 ms (1.00 video frame)
    Interleave, preload duration : 500 ms


    15.08.2016.Торрент файл перезалит, убраны внешние дороги и субтитры!!!
    Download .torrent

    Download free and at maximum speed!

    How to Download? · What is a torrent? · Ratings and Limitations

    The site does not extend and does not store electronic(digital) versions of products, and only gives access to a reference catalogue created by users on torrent-files which contain only lists of the hash-sums, the earnest entreaty, with complaints(abuse) to access directly to the user. Files for an exchange on tracker are given by users of a site, and the administration does not bear the responsibility for their maintenance. The request to not fill in the files protected by copyrights, and also files of the illegal maintenance!

    [Profile] [PM]
    Display posts from previous:    
    Reply to topic

    The time now is: Today 13:23

    All times are GMT + 3 Hours

    You cannot post new topics in this forum
    You cannot reply to topics in this forum
    You cannot edit your posts in this forum
    You cannot delete your posts in this forum
    You cannot vote in polls in this forum
    You cannot attach files in this forum
    You cannot download files in this forum