BitTorrentTracker PerecTracker.org
BitTorrentTracker PerecTracker.org
    
Регистрация  ·  Вход
 
 · 
Забыли пароль?

  • Прометей / Prometheus (Ридли Скотт / Ridley Scott ) [2012, США, Великобритания, Фантастика, детектив, приключения, BDRip, HD (720p)] DUB + Original + sub (rus, eng, ukr)

    Ответить на тему
     
    Автор Сообщение

    rechyn

    Создавать темы 15-Авг-2016 16:17

           

    [Цитировать]

    Прометей / Prometheus
    «Они искали колыбель человечества, но нашли его погибель»
    7.028 / 10 7.00 / 10
    -Год выпуска: 2012
    Страна: США, Великобритания
    Жанр: Фантастика, детектив, приключения
    Продолжительность: 02:03:46
    Перевод: Дублированный (Blu-ray EUR)
    Оригинальная аудиодорожка: Есть
    Cубтитры: Русские, Английские, Украинские
    Режиссёр: Ридли Скотт
    Сценарий: Джон Спэйтс, Дэймон Линделоф, Дэн О’Бэннон
    Продюсер: Дэвид Гайлер, Уолтер Хилл, Ридли Скотт
    Оператор: Дариуш Вольски
    Композитор: Марк Стрейтенфелд
    Художник: Артур Макс, Алекс Камерон, Энтони Кэрон-Делион
    Монтаж: Пьетро Скалия
    В ролях: Нуми Рапас, Майкл Фассбендер, Шарлиз Терон, Идрис Эльба, Гай Пирс, Логан Маршалл-Грин, Шон Харрис, Рейф Сполл, Иман Эллиотт, Бенедикт Вонг
    Бюджет: $130 000 000
    Сборы в США: $126 477 084
    Сборы в мире: + $276 877 385 = $403 354 469
    Сборы в России: $21 792 160
    Мировая премьера: 30 мая 2012
    Премьера (РФ): 31 мая 2012, «Двадцатый Век Фокс СНГ»
    Релиз на DVD: 4 октября 2012, «Двадцатый Век Фокс СНГ»
    Релиз на Blu-Ray: 4 октября 2012, «Двадцатый Век Фокс СНГ»
    Описание: В поисках сакрального знания группа ученых отправляется в самые темные и неизведанные чертоги вселенной. Именно там, в отдаленных мирах, находясь на пределе своих умственных и физических возможностей, им предстоит вступить в безжалостную схватку за будущее всего человечества…-Качество исходника: BDRemux (HDClub)
    Качество: BDRip
    Тип: HD (720p)
    Контейнер: M4V
    Видео: H.264, 1280x536, 2.40:1, 3 500 kb/s, 23.976 (24000/1001) FPS
    Аудио 1: Русский/Дублированный (Blu-ray EUR), AAC / 2.0 / 158 Kbps / 48.0 KHz
    Аудио 2: Английский/Оригинальная дорожка , AAC / 2.0 / 158 Kbps / 48.0 KHz
    Аудио 3: Украинский/Дублированный (Blu-ray EUR), AAC / 2.0 / 158 Kbps / 48.0 KHz
    Аудио 4: Русский/Дублированный (Blu-ray EUR), AC-3 / 5.1 / 640 Kbps / 48.0 KHz
    Аудио 5: Английский/Оригинальная дорожка , AC-3 / 5.1 / 640 Kbps / 48.0 KHz
    Аудио 6: Украинский/Дублированный (Blu-ray EUR), AC-3 / 5.1 / 448 Kbps / 48.0 KHz
    Субтитры 1: Русские полные
    Субтитры 2: Английские полные
    Субтитры 3: Украинские полные
    -

    iTunes Meta Tags

    Sort Name: Prometheus
    XID: Apple:vendor_id:2012-467099
    contentID: 547496947
    Copyright: © 2012 Twentieth Century Fox Film Corporation. All rights reserved.
    Screenwriters: Джон Спэйтс, Дэймон Линделоф, Дэн О’Бэннон
    Producers: Дэвид Гайлер, Уолтер Хилл, Ридли Скотт
    Director: Ридли Скотт
    Cast: Нуми Рапас, Майкл Фассбендер, Шарлиз Терон, Идрис Эльба, Гай Пирс, Логан Маршалл-Грин, Шон Харрис, Рейф Сполл, Иман Эллиотт, Бенедикт Вонг
    Studio: 20th Century Fox
    Rating: 5
    Long Description: В поисках сакрального знания группа ученых отправляется в самые темные и неизведанные чертоги вселенной. Именно там, в отдаленных мирах, находясь на пределе своих умственных и физических возможностей, им предстоит вступить в безжалостную схватку за будущее всего человечества...
    Description: В поисках сакрального знания группа ученых отправляется в самые темные и неизведанные чертоги вселенной. Именно там, в отдаленных мирах, находясь на пределе своих умственных и физических возможностей, им предстоит вступить в безжалостную схватку за будущее всего человечества...
    Release Date: 2012-05-30T08:00:00Z
    Genre: Sci-Fi & Fantasy
    Artist: Ridley Scott
    Name: Prometheus

    MediaInfo

    General
    Complete name                            : /Users/imac/HandBrake/Prometheus (720p HD).m4v
    Format                                   : MPEG-4
    Codec ID                                 : M4V  (M4V /M4A /mp42/isom)
    File size                                : 4.93 GiB
    Duration                                 : 2 h 3 min
    Overall bit rate mode                    : Variable
    Overall bit rate                         : 5 701 kb/s
    Movie name                               : Prometheus
    Performer                                : Ridley Scott
    Director                                 : Ридли Скотт
    Actor                                    : Нуми Рапас / Майкл Фассбендер / Шарлиз Терон / Идрис Эльба / Гай Пирс / Логан Маршалл-Грин / Шон Харрис / Рейф Сполл / Иман Эллиотт / Бенедикт Вонг
    Screenplay by                            : Джон Спэйтс / Дэймон Линделоф / Дэн О’Бэннон
    Producer                                 : Дэвид Гайлер / Уолтер Хилл / Ридли Скотт
    Production studio                        : 20th Century Fox
    Genre                                    : Sci-Fi & Fantasy
    ContentType                              : Short Film
    Description                              : В поисках сакрального знания группа ученых отправляется в самые темные и неизведанные чертоги вселенной. Именно там, в отдаленных мирах, находясь на пределе своих умственных и физических возможностей, им предстоит вступить в безжалостную схватку за будущее всего человечества...
    Recorded date                            : UTC 2012-05-30 08:00:00
    Encoded date                             : UTC 2016-08-15 09:29:51
    Tagged date                              : UTC 2016-08-15 09:35:43
    Copyright                                : © 2012 Twentieth Century Fox Film Corporation. All rights reserved.
    Cover                                    : Yes
    Rating                                   : None
    Title/Sort                               : Prometheus
    LongDescription                          : В поисках сакрального знания группа ученых отправляется в самые темные и неизведанные чертоги вселенной. Именно там, в отдаленных мирах, находясь на пределе своих умственных и физических возможностей, им предстоит вступить в безжалостную схватку за будущее всего человечества...
    HDVideo                                  : Yes
    AppleStoreCatalogID                      : 547496947
    Vendor                                   : Apple:vendor_id:2012-467099
    ContentRating                            : mpaa|R|400|
    Video #1
    ID                                       : 1
    Format                                   : AVC
    Format/Info                              : Advanced Video Codec
    Format profile                           : High@L3.1
    Format settings, CABAC                   : No
    Format settings, ReFrames                : 3 frames
    Codec ID                                 : avc1
    Codec ID/Info                            : Advanced Video Coding
    Duration                                 : 2 h 3 min
    Source duration                          : 2 h 3 min
    Bit rate                                 : 3 500 kb/s
    Width                                    : 1 280 pixels
    Height                                   : 536 pixels
    Display aspect ratio                     : 2.40:1
    Frame rate mode                          : Variable
    Frame rate                               : 23.976 (24000/1001) FPS
    Minimum frame rate                       : 23.974 FPS
    Maximum frame rate                       : 23.981 FPS
    Color space                              : YUV
    Chroma subsampling                       : 4:2:0
    Bit depth                                : 8 bits
    Scan type                                : Progressive
    Bits/(Pixel*Frame)                       : 0.213
    Stream size                              : 3.01 GiB (61%)
    Source stream size                       : 3.01 GiB (61%)
    Title                                    : Main Program
    Writing library                          : x264 core 142 r2479 dd79a61
    Encoding settings                        : cabac=0 / ref=3 / deblock=1:-3:-3 / analyse=0x3:0x113 / me=umh / subme=9 / psy=1 / psy_rd=1.00:0.15 / mixed_ref=1 / me_range=32 / chroma_me=1 / trellis=0 / 8x8dct=1 / cqm=0 / deadzone=21,11 / fast_pskip=0 / chroma_qp_offset=-2 / threads=36 / lookahead_threads=3 / sliced_threads=0 / nr=0 / decimate=0 / interlaced=0 / bluray_compat=0 / constrained_intra=0 / bframes=3 / b_pyramid=0 / b_adapt=2 / b_bias=0 / direct=1 / weightb=0 / open_gop=0 / weightp=0 / keyint=240 / keyint_min=24 / scenecut=40 / intra_refresh=0 / rc_lookahead=40 / rc=2pass / mbtree=1 / bitrate=3500 / ratetol=1.0 / qcomp=0.65 / qpmin=0 / qpmax=69 / qpstep=4 / cplxblur=20.0 / qblur=0.5 / vbv_maxrate=9500 / vbv_bufsize=9500 / nal_hrd=none / filler=0 / ip_ratio=1.40 / aq=1:1.10
    Language                                 : English
    Encoded date                             : UTC 2016-08-15 09:29:51
    Tagged date                              : UTC 2016-08-15 09:30:01
    Color range                              : Limited
    Color primaries                          : BT.709
    Transfer characteristics                 : BT.709
    Matrix coefficients                      : BT.709
    Menus                                    : 11,12
    Video #2
    ID                                       : 12
    Format                                   : JPEG
    Codec ID                                 : jpeg
    Duration                                 : 2 h 3 min
    Bit rate mode                            : Variable
    Bit rate                                 : 1 113 b/s
    Width                                    : 640 pixels
    Height                                   : 268 pixels
    Display aspect ratio                     : 2.40:1
    Frame rate mode                          : Variable
    Frame rate                               : 0.005 FPS
    Minimum frame rate                       : 0.002 FPS
    Maximum frame rate                       : 0.011 FPS
    Color space                              : YUV
    Chroma subsampling                       : 4:2:0
    Bit depth                                : 8 bits
    Compression mode                         : Lossy
    Bits/(Pixel*Frame)                       : 1.298
    Stream size                              : 978 KiB (0%)
    Title                                    : Chapter Images
    Language                                 : English
    Default                                  : No
    Encoded date                             : UTC 2016-08-15 09:31:19
    Tagged date                              : UTC 2016-08-15 09:31:20
    Menu For                                 : 1
    Audio #1
    ID                                       : 2
    Format                                   : AAC
    Format/Info                              : Advanced Audio Codec
    Format profile                           : LC
    Codec ID                                 : 40
    Duration                                 : 2 h 3 min
    Bit rate mode                            : Variable
    Bit rate                                 : 158 kb/s
    Maximum bit rate                         : 262 kb/s
    Channel(s)                               : 2 channels
    Channel positions                        : Front: L R
    Sampling rate                            : 48.0 kHz
    Frame rate                               : 46.875 FPS (1024 spf)
    Compression mode                         : Lossy
    Stream size                              : 140 MiB (3%)
    Title                                    : Russian Stereo
    Language                                 : Russian
    Default                                  : Yes
    Alternate group                          : 1
    Encoded date                             : UTC 2016-08-15 09:29:51
    Tagged date                              : UTC 2016-08-15 09:31:12
    Fallback From                            : 5
    Audio #2
    ID                                       : 3
    Format                                   : AAC
    Format/Info                              : Advanced Audio Codec
    Format profile                           : LC
    Codec ID                                 : 40
    Duration                                 : 2 h 3 min
    Bit rate mode                            : Variable
    Bit rate                                 : 158 kb/s
    Maximum bit rate                         : 254 kb/s
    Channel(s)                               : 2 channels
    Channel positions                        : Front: L R
    Sampling rate                            : 48.0 kHz
    Frame rate                               : 46.875 FPS (1024 spf)
    Compression mode                         : Lossy
    Stream size                              : 140 MiB (3%)
    Title                                    : English Stereo
    Language                                 : English
    Default                                  : No
    Alternate group                          : 1
    Encoded date                             : UTC 2016-08-15 09:29:51
    Tagged date                              : UTC 2016-08-15 09:31:12
    Fallback From                            : 6
    Audio #3
    ID                                       : 4
    Format                                   : AAC
    Format/Info                              : Advanced Audio Codec
    Format profile                           : LC
    Codec ID                                 : 40
    Duration                                 : 2 h 3 min
    Bit rate mode                            : Variable
    Bit rate                                 : 158 kb/s
    Maximum bit rate                         : 263 kb/s
    Channel(s)                               : 2 channels
    Channel positions                        : Front: L R
    Sampling rate                            : 48.0 kHz
    Frame rate                               : 46.875 FPS (1024 spf)
    Compression mode                         : Lossy
    Stream size                              : 140 MiB (3%)
    Title                                    : Ukrainian Stereo
    Language                                 : Ukrainian
    Default                                  : No
    Alternate group                          : 1
    Encoded date                             : UTC 2016-08-15 09:29:51
    Tagged date                              : UTC 2016-08-15 09:31:12
    Fallback From                            : 7
    Audio #4
    ID                                       : 5
    Format                                   : AC-3
    Format/Info                              : Audio Coding 3
    Mode extension                           : CM (complete main)
    Format settings, Endianness              : Big
    Codec ID                                 : ac-3
    Duration                                 : 2 h 3 min
    Bit rate mode                            : Constant
    Bit rate                                 : 640 kb/s
    Channel(s)                               : 6 channels
    Channel positions                        : Front: L C R, Side: L R, LFE
    Sampling rate                            : 48.0 kHz
    Frame rate                               : 31.250 FPS (1536 spf)
    Bit depth                                : 16 bits
    Compression mode                         : Lossy
    Stream size                              : 567 MiB (11%)
    Title                                    : Russian DD 5.1
    Language                                 : Russian
    Default                                  : Inherited From: 2
    Alternate group                          : 1
    Encoded date                             : UTC 2016-08-15 09:29:51
    Tagged date                              : UTC 2016-08-15 09:31:12
    Fallback To                              : 2
    Audio #5
    ID                                       : 6
    Format                                   : AC-3
    Format/Info                              : Audio Coding 3
    Mode extension                           : CM (complete main)
    Format settings, Endianness              : Big
    Codec ID                                 : ac-3
    Duration                                 : 2 h 3 min
    Bit rate mode                            : Constant
    Bit rate                                 : 640 kb/s
    Channel(s)                               : 6 channels
    Channel positions                        : Front: L C R, Side: L R, LFE
    Sampling rate                            : 48.0 kHz
    Frame rate                               : 31.250 FPS (1536 spf)
    Bit depth                                : 16 bits
    Compression mode                         : Lossy
    Stream size                              : 567 MiB (11%)
    Title                                    : English DD 5.1
    Language                                 : English
    Default                                  : No
    Alternate group                          : 1
    Encoded date                             : UTC 2016-08-15 09:29:51
    Tagged date                              : UTC 2016-08-15 09:31:12
    Fallback To                              : 3
    Audio #6
    ID                                       : 7
    Format                                   : AC-3
    Format/Info                              : Audio Coding 3
    Mode extension                           : CM (complete main)
    Format settings, Endianness              : Big
    Codec ID                                 : ac-3
    Duration                                 : 2 h 3 min
    Bit rate mode                            : Constant
    Bit rate                                 : 448 kb/s
    Channel(s)                               : 6 channels
    Channel positions                        : Front: L C R, Side: L R, LFE
    Sampling rate                            : 48.0 kHz
    Frame rate                               : 31.250 FPS (1536 spf)
    Bit depth                                : 16 bits
    Compression mode                         : Lossy
    Stream size                              : 397 MiB (8%)
    Title                                    : Ukrainian DD 5.1
    Language                                 : Ukrainian
    Default                                  : No
    Alternate group                          : 1
    Encoded date                             : UTC 2016-08-15 09:29:51
    Tagged date                              : UTC 2016-08-15 09:31:12
    Fallback To                              : 4
    Text #1
    ID                                       : 8
    Format                                   : Timed Text
    Muxing mode                              : sbtl
    Codec ID                                 : tx3g
    Duration                                 : 1 h 56 min
    Bit rate mode                            : Variable
    Bit rate                                 : 77 b/s
    Stream size                              : 65.6 KiB (0%)
    Title                                    : Russian full
    Language                                 : Russian
    Default                                  : Yes
    Forced                                   : No
    Alternate group                          : 2
    Encoded date                             : UTC 2016-08-15 09:29:51
    Tagged date                              : UTC 2016-08-15 09:31:08
    Text #2
    ID                                       : 9
    Format                                   : Timed Text
    Muxing mode                              : sbtl
    Codec ID                                 : tx3g
    Duration                                 : 2 h 3 min
    Bit rate mode                            : Variable
    Bit rate                                 : 49 b/s
    Stream size                              : 44.7 KiB (0%)
    Title                                    : English full
    Language                                 : English
    Default                                  : No
    Forced                                   : No
    Alternate group                          : 2
    Encoded date                             : UTC 2016-08-15 09:29:51
    Tagged date                              : UTC 2016-08-15 09:31:08
    Text #3
    ID                                       : 10
    Format                                   : Timed Text
    Muxing mode                              : sbtl
    Codec ID                                 : tx3g
    Duration                                 : 1 h 56 min
    Bit rate mode                            : Variable
    Bit rate                                 : 75 b/s
    Stream size                              : 64.0 KiB (0%)
    Title                                    : Ukrainian full
    Language                                 : Ukrainian
    Default                                  : No
    Forced                                   : No
    Alternate group                          : 2
    Encoded date                             : UTC 2016-08-15 09:29:51
    Tagged date                              : UTC 2016-08-15 09:31:08
    Menu #1
    00:00:00.000                             : Chapter 1
    00:05:12.812                             : Chapter 2
    00:07:44.172                             : Chapter 3
    00:11:31.608                             : Chapter 4
    00:15:09.492                             : Chapter 5
    00:20:04.995                             : Chapter 6
    00:22:32.893                             : Chapter 7
    00:27:42.369                             : Chapter 8
    00:31:57.916                             : Chapter 9
    00:34:10.382                             : Chapter 10
    00:37:52.854                             : Chapter 11
    00:40:45.443                             : Chapter 12
    00:45:49.413                             : Chapter 13
    00:48:48.008                             : Chapter 14
    00:50:23.145                             : Chapter 15
    00:53:56.483                             : Chapter 16
    00:56:32.306                             : Chapter 17
    00:59:31.693                             : Chapter 18
    01:01:29.269                             : Chapter 19
    01:04:17.645                             : Chapter 20
    01:06:01.541                             : Chapter 21
    01:08:57.300                             : Chapter 22
    01:11:13.394                             : Chapter 23
    01:15:10.715                             : Chapter 24
    01:17:05.955                             : Chapter 25
    01:25:02.389                             : Chapter 26
    01:27:09.433                             : Chapter 27
    01:30:10.447                             : Chapter 28
    01:32:43.808                             : Chapter 29
    01:35:23.217                             : Chapter 30
    01:37:46.736                             : Chapter 31
    01:40:46.457                             : Chapter 32
    01:43:46.303                             : Chapter 33
    01:48:28.877                             : Chapter 34
    01:52:08.180                             : Chapter 35
    01:58:05.996                             : Chapter 36
    Menu #2
    ID                                       : 11
    Codec ID                                 : text
    Duration                                 : 2 h 3 min
    Language                                 : English
    Encoded date                             : UTC 2016-08-15 09:31:12
    Tagged date                              : UTC 2016-08-15 09:31:12
    Menu For                                 : 1
    00:00:00.000                             : Chapter 1
    00:05:12.812                             : Chapter 2
    00:07:44.172                             : Chapter 3
    00:11:31.608                             : Chapter 4
    00:15:09.492                             : Chapter 5
    00:20:04.995                             : Chapter 6
    00:22:32.893                             : Chapter 7
    00:27:42.369                             : Chapter 8
    00:31:57.916                             : Chapter 9
    00:34:10.382                             : Chapter 10
    00:37:52.854                             : Chapter 11
    00:40:45.443                             : Chapter 12
    00:45:49.413                             : Chapter 13
    00:48:48.008                             : Chapter 14
    00:50:23.145                             : Chapter 15
    00:53:56.483                             : Chapter 16
    00:56:32.306                             : Chapter 17
    00:59:31.693                             : Chapter 18
    01:01:29.269                             : Chapter 19
    01:04:17.645                             : Chapter 20
    01:06:01.541                             : Chapter 21
    01:08:57.300                             : Chapter 22
    01:11:13.394                             : Chapter 23
    01:15:10.715                             : Chapter 24
    01:17:05.955                             : Chapter 25
    01:25:02.389                             : Chapter 26
    01:27:09.433                             : Chapter 27
    01:30:10.447                             : Chapter 28
    01:32:43.808                             : Chapter 29
    01:35:23.217                             : Chapter 30
    01:37:46.736                             : Chapter 31
    01:40:46.457                             : Chapter 32
    01:43:46.303                             : Chapter 33
    01:48:28.877                             : Chapter 34
    01:52:08.180                             : Chapter 35
    01:58:05.996                             : Chapter 36
    Bit rate mode                            : VBR

    x264 лог

    x264 [info]: frame I:1979  Avg QP:14.12  size: 92266
    x264 [info]: frame P:69610 Avg QP:16.68  size: 29492
    x264 [info]: frame B:106467 Avg QP:18.45  size:  9384
    x264 [info]: consecutive B-frames:  7.7% 30.6% 21.1% 40.5%
    x264 [info]: mb I  I16..4:  7.5% 59.4% 33.1%
    x264 [info]: mb P  I16..4:  1.3%  5.3%  2.4%  P16..4: 44.8% 25.7% 10.6%  0.0%  0.0%    skip: 9.9%
    x264 [info]: mb B  I16..4:  0.1%  0.7%  0.4%  B16..8: 47.6% 12.3%  1.8%  direct: 3.9%  skip:33.1%  L0:41.1% L1:52.3% BI: 6.6%
    x264 [info]: 8x8 transform intra:59.0% inter:41.7%
    x264 [info]: coded y,uvDC,uvAC intra: 86.5% 71.2% 47.1% inter: 25.0% 17.0% 8.8%
    x264 [info]: i16 v,h,dc,p: 36% 19%  7% 38%
    x264 [info]: i8 v,h,dc,ddl,ddr,vr,hd,vl,hu:  9%  8%  5% 12% 16% 14% 15% 11% 11%
    x264 [info]: i4 v,h,dc,ddl,ddr,vr,hd,vl,hu:  9%  9%  4% 13% 17% 14% 15% 10% 10%
    x264 [info]: i8c dc,h,v,p: 53% 18% 19% 10%
    x264 [info]: ref P L0: 69.3% 17.5% 13.2%
    x264 [info]: ref B L0: 79.2% 20.8%
    x264 [info]: kb/s:3484.38

    Скриншоты

    -

    Релиз подготовлен для просмотра на Apple TV, iPad, iPhone, iPod Touch.
    Для просмотра данного релиза на компьютере с ОС Windows рекомендуется использовать VLC media player
    Скачать .torrent

    Скачать торрент-файл бесплатно и на максимальной скорости!

    Как скачивать? · Что такое торрент? · Рейтинг и ограничения

    !ВНИМАНИЕ!
    Сайт не распространяет и не хранит электронные версии произведений, а занимается лишь лишь предоставлением доступа к создаваемому пользователями каталогу ссылок на торрент-файлы, которые содержат только списки хеш-сумм, убедительная просьба с жалобами обращаться напрямую к пользователю. Файлы для обмена на трекере предоставлены пользователями сайта, и администрация не несёт ответственности за их содержание. Просьба не заливать файлы, защищенные авторскими правами, а также файлы нелегального содержания!


    _________________
    [Профиль] [ЛС]
    Показать сообщения:    
    Ответить на тему

    Текущее время: Сегодня, в 04:18

    Часовой пояс: GMT + 2



    Вы не можете начинать темы
    Вы не можете отвечать на сообщения
    Вы не можете редактировать свои сообщения
    Вы не можете удалять свои сообщения
    Вы не можете голосовать в опросах
    Вы не можете прикреплять файлы к сообщениям
    Вы не можете скачивать файлы