BitTorrentTracker PerecTracker.org
BitTorrentTracker PerecTracker.org
    
Регистрация  ·  Вход
 
 · 
Забыли пароль?

  • Славные парни / The Nice Guys (Шейн Блэк / Shane Black ) [2016, США, Великобритания, Криминал, комедия, BDRip, HD (720p)] DUB + Original + sub (eng)

    Ответить на тему
     
    Автор Сообщение

    rechyn

    Создавать темы 15-Авг-2016 12:05

           

    [Цитировать]

    Славные парни / The Nice Guys
    «Симпатичная пара»
    7.282 / 10 7.60 / 10
    -Год выпуска: 2016
    Страна: США, Великобритания
    Жанр: Криминал, комедия
    Продолжительность: 1:55:57
    Перевод: Дублированный (iTunes)
    Оригинальная аудиодорожка: Есть
    Cубтитры: Английские
    Режиссёр: Шейн Блэк
    Сценарий: Шейн Блэк, Энтони Багароцци
    Продюсер: Джоэл Силвер, Аарон Ауч, Энтони Багароцци
    Оператор: Филипп Русло
    Композитор: Дэвид Бакли, Джон Оттмен
    Художник: Ричард Бриджлэнд, Дэвид Атли, Ким Барретт
    Монтаж: Джоэль Негрон
    В ролях: Райан Гослинг, Ким Бейсингер, Рассел Кроу, Энгаури Райс, Мэтт Бомер, Маргарет Куэлли, Йайа ДаКоста, Кит Дэвид, Бо Напп, Лоис Смит
    Бюджет: $50 000 000
    Сборы в США: $36 261 763
    Сборы в России: $2 462 171
    Мировая премьера: 15 мая 2016
    Премьера (РФ): 16 июня 2016, «Парадиз»
    Описание: Что бывает, когда напарником брутального костолома становится субтильный лопух? Наемный охранник Джексон Хили и частный детектив Холланд Марч вынуждены работать в паре, чтобы распутать плевое дело о пропавшей девушке, которое оборачивается преступлением века.
    Смогут ли парни разгадать сложный ребус, если у каждого из них — свои, весьма индивидуальные методы.-Качество исходника: Blu-Ray (BlueBird)
    Качество: BDRip
    Тип: HD (720p)
    Контейнер: M4V
    Видео: H.264, 1280x536, 2.40:1, 3 500 kb/s, 23.976 (24000/1001) FPS
    Аудио 1: Русский/Дублированный (iTunes), AAC / 2.0 / 158 kb/s / 48.0 kHz
    Аудио 2: Английский/Оригинальная дорожка , AAC / 2.0 / 157 kb/s / 48.0 kHz
    Аудио 3: Русский/Дублированный (iTunes), AC-3 / 5.1 / 384 kb/s / 48.0 kHz
    Аудио 4: Английский/Оригинальная дорожка , AC-3 / 5.1 / 640 kb/s / 48.0 kHz
    Субтитры: Английские полные
    -

    iTunes Meta Tags

    Sort Name: Nice Guys
    XID: Apple:vendor_id:2016-841152
    contentID: 1114158810
    Copyright: © 2016 Warner Bros. Entertainment Inc.
    Screenwriters: Шейн Блэк, Энтони Багароцци
    Producers: Джоэл Силвер, Аарон Ауч, Энтони Багароцци
    Director: Шейн Блэк
    Cast: Райан Гослинг, Ким Бейсингер, Рассел Кроу, Энгаури Райс, Мэтт Бомер, Маргарет Куэлли, Йайа ДаКоста, Кит Дэвид, Бо Напп, Лоис Смит
    Studio: Warner Bros.
    Rating Annotation: Rated R for violence, sexuality, nudity, language and brief drug use.
    Rating: 5
    Long Description: Что бывает, когда напарником брутального костолома становится субтильный лопух? Наемный охранник Джексон Хили и частный детектив Холланд Марч вынуждены работать в паре, чтобы распутать плевое дело о пропавшей девушке, которое оборачивается преступлением века.
    Смогут ли парни разгадать сложный ребус, если у каждого из них - свои, весьма индивидуальные методы...
    Description: Что бывает, когда напарником брутального костолома становится субтильный лопух? Наемный охранник Джексон Хили и частный детектив Холланд Марч вынуждены работать в паре, чтобы распутать плевое дело о пропавшей девушке, которое оборачивается преступлением века.
    Смогут ли парни разгадать сложный ребус, если у каждого из них - свои, весьма индивидуальные методы...
    Release Date: 2016-05-15T08:00:00Z
    Genre: Thriller
    Artist: Shane Black
    Name: The Nice Guys

    MediaInfo

    General
    Complete name                            : /Users/imac/HandBrake/The Nice Guys (720p HD).m4v
    Format                                   : MPEG-4
    Codec ID                                 : M4V  (M4V /M4A /mp42/isom)
    File size                                : 3.92 GiB
    Duration                                 : 1 h 55 min
    Overall bit rate mode                    : Variable
    Overall bit rate                         : 4 842 kb/s
    Movie name                               : The Nice Guys
    Performer                                : Shane Black
    Director                                 : Шейн Блэк
    Actor                                    : Райан Гослинг / Ким Бейсингер / Рассел Кроу / Энгаури Райс / Мэтт Бомер / Маргарет Куэлли / Йайа ДаКоста / Кит Дэвид / Бо Напп / Лоис Смит
    Screenplay by                            : Шейн Блэк / Энтони Багароцци
    Producer                                 : Джоэл Силвер / Аарон Ауч / Энтони Багароцци
    Production studio                        : Warner Bros.
    Genre                                    : Thriller
    ContentType                              : Short Film
    Description                              : Что бывает, когда напарником брутального костолома становится субтильный лопух? Наемный охранник Джексон Хили и частный детектив Холланд Марч вынуждены работать в паре, чтобы распутать плевое дело о пропавшей девушке, которое оборачивается преступлением века.  / Смогут ли парни разгадать сложный ребус, если у каждого из них - свои, весьма индивидуальные методы...
    Recorded date                            : UTC 2016-05-15 08:00:00
    Encoded date                             : UTC 2016-08-15 08:37:36
    Tagged date                              : UTC 2016-08-15 08:39:21
    Copyright                                : © 2016 Warner Bros. Entertainment Inc.
    Cover                                    : Yes
    Rating                                   : None
    Title/Sort                               : Nice Guys
    LongDescription                          : Что бывает, когда напарником брутального костолома становится субтильный лопух? Наемный охранник Джексон Хили и частный детектив Холланд Марч вынуждены работать в паре, чтобы распутать плевое дело о пропавшей девушке, которое оборачивается преступлением века.  / Смогут ли парни разгадать сложный ребус, если у каждого из них - свои, весьма индивидуальные методы...
    HDVideo                                  : Yes
    AppleStoreCatalogID                      : 1114158810
    Vendor                                   : Apple:vendor_id:2016-841152
    ContentRating                            : mpaa|R|400|Rated R for violence, sexuality, nudity, language and brief drug use.
    Video #1
    ID                                       : 1
    Format                                   : AVC
    Format/Info                              : Advanced Video Codec
    Format profile                           : High@L3.1
    Format settings, CABAC                   : No
    Format settings, ReFrames                : 3 frames
    Codec ID                                 : avc1
    Codec ID/Info                            : Advanced Video Coding
    Duration                                 : 1 h 55 min
    Source duration                          : 1 h 55 min
    Bit rate                                 : 3 500 kb/s
    Width                                    : 1 280 pixels
    Height                                   : 536 pixels
    Display aspect ratio                     : 2.40:1
    Frame rate mode                          : Variable
    Frame rate                               : 23.976 (24000/1001) FPS
    Minimum frame rate                       : 23.810 FPS
    Maximum frame rate                       : 24.246 FPS
    Color space                              : YUV
    Chroma subsampling                       : 4:2:0
    Bit depth                                : 8 bits
    Scan type                                : Progressive
    Bits/(Pixel*Frame)                       : 0.213
    Stream size                              : 2.83 GiB (72%)
    Source stream size                       : 2.83 GiB (72%)
    Title                                    : Main Program
    Writing library                          : x264 core 142 r2479 dd79a61
    Encoding settings                        : cabac=0 / ref=3 / deblock=1:-3:-3 / analyse=0x3:0x113 / me=umh / subme=9 / psy=1 / psy_rd=1.00:0.15 / mixed_ref=1 / me_range=32 / chroma_me=1 / trellis=0 / 8x8dct=1 / cqm=0 / deadzone=21,11 / fast_pskip=0 / chroma_qp_offset=-2 / threads=36 / lookahead_threads=3 / sliced_threads=0 / nr=0 / decimate=0 / interlaced=0 / bluray_compat=0 / constrained_intra=0 / bframes=3 / b_pyramid=0 / b_adapt=2 / b_bias=0 / direct=1 / weightb=0 / open_gop=0 / weightp=0 / keyint=240 / keyint_min=24 / scenecut=40 / intra_refresh=0 / rc_lookahead=40 / rc=2pass / mbtree=1 / bitrate=3500 / ratetol=1.0 / qcomp=0.65 / qpmin=0 / qpmax=69 / qpstep=4 / cplxblur=20.0 / qblur=0.5 / vbv_maxrate=9500 / vbv_bufsize=9500 / nal_hrd=none / filler=0 / ip_ratio=1.40 / aq=1:1.10
    Language                                 : English
    Encoded date                             : UTC 2016-08-15 08:37:36
    Tagged date                              : UTC 2016-08-15 08:37:44
    Color range                              : Limited
    Color primaries                          : BT.709
    Transfer characteristics                 : BT.709
    Matrix coefficients                      : BT.709
    Menus                                    : 7,8
    Video #2
    ID                                       : 8
    Format                                   : JPEG
    Codec ID                                 : jpeg
    Duration                                 : 1 h 55 min
    Bit rate mode                            : Variable
    Bit rate                                 : 621 b/s
    Width                                    : 640 pixels
    Height                                   : 268 pixels
    Display aspect ratio                     : 2.40:1
    Frame rate mode                          : Variable
    Frame rate                               : 0.002 FPS
    Minimum frame rate                       : 0.002 FPS
    Maximum frame rate                       : 0.007 FPS
    Color space                              : YUV
    Chroma subsampling                       : 4:2:0
    Bit depth                                : 8 bits
    Compression mode                         : Lossy
    Bits/(Pixel*Frame)                       : 1.810
    Stream size                              : 493 KiB (0%)
    Title                                    : Chapter Images
    Language                                 : English
    Default                                  : No
    Encoded date                             : UTC 2016-08-15 08:38:41
    Tagged date                              : UTC 2016-08-15 08:38:41
    Menu For                                 : 1
    Audio #1
    ID                                       : 2
    Format                                   : AAC
    Format/Info                              : Advanced Audio Codec
    Format profile                           : LC
    Codec ID                                 : 40
    Duration                                 : 1 h 55 min
    Bit rate mode                            : Variable
    Bit rate                                 : 158 kb/s
    Maximum bit rate                         : 272 kb/s
    Channel(s)                               : 2 channels
    Channel positions                        : Front: L R
    Sampling rate                            : 48.0 kHz
    Frame rate                               : 46.875 FPS (1024 spf)
    Compression mode                         : Lossy
    Stream size                              : 131 MiB (3%)
    Title                                    : Russian Stereo
    Language                                 : Russian
    Default                                  : Yes
    Alternate group                          : 1
    Encoded date                             : UTC 2016-08-15 08:37:36
    Tagged date                              : UTC 2016-08-15 08:38:38
    Fallback From                            : 4
    Audio #2
    ID                                       : 3
    Format                                   : AAC
    Format/Info                              : Advanced Audio Codec
    Format profile                           : LC
    Codec ID                                 : 40
    Duration                                 : 1 h 55 min
    Bit rate mode                            : Variable
    Bit rate                                 : 157 kb/s
    Maximum bit rate                         : 248 kb/s
    Channel(s)                               : 2 channels
    Channel positions                        : Front: L R
    Sampling rate                            : 48.0 kHz
    Frame rate                               : 46.875 FPS (1024 spf)
    Compression mode                         : Lossy
    Stream size                              : 130 MiB (3%)
    Title                                    : English Stereo
    Language                                 : English
    Default                                  : No
    Alternate group                          : 1
    Encoded date                             : UTC 2016-08-15 08:37:36
    Tagged date                              : UTC 2016-08-15 08:38:38
    Fallback From                            : 5
    Audio #3
    ID                                       : 4
    Format                                   : AC-3
    Format/Info                              : Audio Coding 3
    Mode extension                           : CM (complete main)
    Format settings, Endianness              : Big
    Codec ID                                 : ac-3
    Duration                                 : 1 h 55 min
    Bit rate mode                            : Constant
    Bit rate                                 : 384 kb/s
    Channel(s)                               : 6 channels
    Channel positions                        : Front: L C R, Side: L R, LFE
    Sampling rate                            : 48.0 kHz
    Frame rate                               : 31.250 FPS (1536 spf)
    Bit depth                                : 16 bits
    Compression mode                         : Lossy
    Stream size                              : 318 MiB (8%)
    Title                                    : Russian DD 5.1
    Language                                 : Russian
    Default                                  : Inherited From: 2
    Alternate group                          : 1
    Encoded date                             : UTC 2016-08-15 08:37:36
    Tagged date                              : UTC 2016-08-15 08:38:38
    Fallback To                              : 2
    Audio #4
    ID                                       : 5
    Format                                   : AC-3
    Format/Info                              : Audio Coding 3
    Mode extension                           : CM (complete main)
    Format settings, Endianness              : Big
    Codec ID                                 : ac-3
    Duration                                 : 1 h 55 min
    Bit rate mode                            : Constant
    Bit rate                                 : 640 kb/s
    Channel(s)                               : 6 channels
    Channel positions                        : Front: L C R, Side: L R, LFE
    Sampling rate                            : 48.0 kHz
    Frame rate                               : 31.250 FPS (1536 spf)
    Bit depth                                : 16 bits
    Compression mode                         : Lossy
    Stream size                              : 531 MiB (13%)
    Title                                    : English DD 5.1
    Language                                 : English
    Default                                  : No
    Alternate group                          : 1
    Encoded date                             : UTC 2016-08-15 08:37:36
    Tagged date                              : UTC 2016-08-15 08:38:38
    Fallback To                              : 3
    Text
    ID                                       : 6
    Format                                   : Timed Text
    Muxing mode                              : sbtl
    Codec ID                                 : tx3g
    Duration                                 : 1 h 50 min
    Bit rate mode                            : Variable
    Bit rate                                 : 92 b/s
    Stream size                              : 74.9 KiB (0%)
    Title                                    : English full
    Language                                 : English
    Default                                  : Yes
    Forced                                   : No
    Alternate group                          : 2
    Encoded date                             : UTC 2016-08-15 08:37:36
    Tagged date                              : UTC 2016-08-15 08:38:36
    Menu #1
    00:00:00.000                             : Chapter 1
    00:10:41.766                             : Chapter 2
    00:21:07.391                             : Chapter 3
    00:29:12.960                             : Chapter 4
    00:40:12.827                             : Chapter 5
    00:50:50.547                             : Chapter 6
    01:01:02.117                             : Chapter 7
    01:10:15.586                             : Chapter 8
    01:19:59.169                             : Chapter 9
    01:29:40.875                             : Chapter 10
    01:40:10.504                             : Chapter 11
    01:48:35.884                             : Chapter 12
    01:50:50.102                             : Chapter 13
    Menu #2
    ID                                       : 7
    Codec ID                                 : text
    Duration                                 : 1 h 55 min
    Language                                 : English
    Encoded date                             : UTC 2016-08-15 08:38:38
    Tagged date                              : UTC 2016-08-15 08:38:38
    Menu For                                 : 1
    00:00:00.000                             : Chapter 1
    00:10:41.766                             : Chapter 2
    00:21:07.391                             : Chapter 3
    00:29:12.960                             : Chapter 4
    00:40:12.827                             : Chapter 5
    00:50:50.547                             : Chapter 6
    01:01:02.117                             : Chapter 7
    01:10:15.586                             : Chapter 8
    01:19:59.169                             : Chapter 9
    01:29:40.875                             : Chapter 10
    01:40:10.504                             : Chapter 11
    01:48:35.884                             : Chapter 12
    01:50:50.102                             : Chapter 13
    Bit rate mode                            : VBR

    x264 лог

    x264 [info]: frame I:2089  Avg QP:13.77  size:100057
    x264 [info]: frame P:61185 Avg QP:16.18  size: 32493
    x264 [info]: frame B:103530 Avg QP:18.05  size:  8119
    x264 [info]: consecutive B-frames:  3.6% 34.5% 18.9% 42.9%
    x264 [info]: mb I  I16..4:  7.5% 62.0% 30.5%
    x264 [info]: mb P  I16..4:  1.3%  5.5%  2.2%  P16..4: 43.4% 28.9% 12.1%  0.0%  0.0%    skip: 6.4%
    x264 [info]: mb B  I16..4:  0.1%  0.7%  0.3%  B16..8: 45.7% 13.0%  1.9%  direct: 3.3%  skip:35.1%  L0:40.5% L1:52.5% BI: 7.0%
    x264 [info]: 8x8 transform intra:61.4% inter:42.3%
    x264 [info]: coded y,uvDC,uvAC intra: 85.6% 86.9% 71.6% inter: 24.4% 24.3% 16.4%
    x264 [info]: i16 v,h,dc,p: 44% 12%  7% 37%
    x264 [info]: i8 v,h,dc,ddl,ddr,vr,hd,vl,hu: 14%  7%  6% 10% 14% 14% 13% 12% 10%
    x264 [info]: i4 v,h,dc,ddl,ddr,vr,hd,vl,hu: 12%  7%  3% 12% 17% 16% 13% 11%  8%
    x264 [info]: i8c dc,h,v,p: 51% 16% 21% 12%
    x264 [info]: ref P L0: 72.8% 15.9% 11.3%
    x264 [info]: ref B L0: 80.8% 19.2%
    x264 [info]: kb/s:3492.97

    Скриншоты

    -

    Релиз подготовлен для просмотра на Apple TV, iPad, iPhone, iPod Touch.
    Для просмотра данного релиза на компьютере с ОС Windows рекомендуется использовать VLC media player
    Скачать .torrent

    Скачать торрент-файл бесплатно и на максимальной скорости!

    Как скачивать? · Что такое торрент? · Рейтинг и ограничения

    !ВНИМАНИЕ!
    Сайт не распространяет и не хранит электронные версии произведений, а занимается лишь лишь предоставлением доступа к создаваемому пользователями каталогу ссылок на торрент-файлы, которые содержат только списки хеш-сумм, убедительная просьба с жалобами обращаться напрямую к пользователю. Файлы для обмена на трекере предоставлены пользователями сайта, и администрация не несёт ответственности за их содержание. Просьба не заливать файлы, защищенные авторскими правами, а также файлы нелегального содержания!


    _________________
    [Профиль] [ЛС]
    Показать сообщения:    
    Ответить на тему

    Текущее время: Сегодня, в 20:36

    Часовой пояс: GMT + 2



    Вы не можете начинать темы
    Вы не можете отвечать на сообщения
    Вы не можете редактировать свои сообщения
    Вы не можете удалять свои сообщения
    Вы не можете голосовать в опросах
    Вы не можете прикреплять файлы к сообщениям
    Вы не можете скачивать файлы