Register  ·  Log in
Forgot password?

  • Тупой и еще тупее 2 / Dumb and Dumber to (Питер Фаррелли / Peter Farrelly, Бобби Фаррелли / Bobby Farrelly) [2014, США, Комедия, HDRip] Dub

    Reply to topic
    Author Message


    Post 15-Aug-2016 13:05



    Тупой и еще тупее 2 / Dumb and Dumber to
    Страна: США
    Жанр: Комедия
    Год выпуска: 2014
    Продолжительность: 1:49:31
    Перевод: Профессиональный (дублированный)
    Cубтитры: нет
    Режиссер: Питер Фаррелли / Peter Farrelly, Бобби Фаррелли / Bobby Farrelly
    В ролях: Джим Керри, Джефф Дэниелс, Роб Риггл, Лори Холден, Рэйчел Мелвин, Кэтлин Тёрнер, Стив Том, Дон Лейк, Патриция Френч, Билл Мюррей
    Описание: Гарри Данн и Ллойд Кристмас отправляются в путешествие, чтобы разыскать ребенка Гарри, о существовании которого он не подозревал.
    Качество видео: HDRip
    Формат видео: AVI
    Видео: 624x336 (1.86:1), 23.976 fps, XviD build 73 ~812 kbps avg, 0.16 bit/pixel
    Аудио: 48 kHz, MPEG Layer 3, 2 ch, ~128.00 kbps avg


    Complete name : E:\Zona Downloads\Dumb.and.Dumber.2.2014.HDRip..avi
    Format : AVI
    Format/Info : Audio Video Interleave
    File size : 744 MiB
    Duration : 1h 49mn
    Overall bit rate : 950 Kbps
    Writing application : VirtualDubMod | || (build 2550/release)
    Writing library : VirtualDubMod build 2550/release
    ID : 0
    Format : MPEG-4 Visual
    Format profile : Advanced Simple@L5
    Format settings, BVOP : 1
    Format settings, QPel : No
    Format settings, GMC : No warppoints
    Format settings, Matrix : Custom
    Codec ID : XVID
    Codec ID/Hint : XviD
    Duration : 1h 49mn
    Bit rate : 813 Kbps
    Width : 624 pixels
    Height : 336 pixels
    Display aspect ratio : 1.85:1
    Frame rate : 23.976 fps
    Color space : YUV
    Chroma subsampling : 4:2:0
    Bit depth : 8 bits
    Scan type : Progressive
    Compression mode : Lossy
    Bits/(Pixel*Frame) : 0.162
    Stream size : 637 MiB (86%)
    Writing library : XviD 73
    ID : 1
    Format : MPEG Audio
    Format version : Version 1
    Format profile : Layer 3
    Codec ID : 55
    Codec ID/Hint : MP3
    Duration : 1h 49mn
    Bit rate mode : Constant
    Bit rate : 128 Kbps
    Channel(s) : 2 channels
    Sampling rate : 48.0 KHz
    Compression mode : Lossy
    Stream size : 100 MiB (13%)
    Alignment : Aligned on interleaves
    Interleave, duration : 42 ms (1.00 video frame)
    Interleave, preload duration : 504 ms
    Writing library : LAME3.99r
    Encoding settings : -m s -V 4 -q 2 -lowpass 17 -b 128

    Скриншот c названием фильма


    Download .torrent

    Download free and at maximum speed!

    How to Download? · What is a torrent? · Ratings and Limitations

    The site does not extend and does not store electronic(digital) versions of products, and only gives access to a reference catalogue created by users on torrent-files which contain only lists of the hash-sums, the earnest entreaty, with complaints(abuse) to access directly to the user. Files for an exchange on tracker are given by users of a site, and the administration does not bear the responsibility for their maintenance. The request to not fill in the files protected by copyrights, and also files of the illegal maintenance!

    [Profile] [PM]
    Display posts from previous:    
    Reply to topic

    The time now is: Today 09:19

    All times are GMT + 3 Hours

    You cannot post new topics in this forum
    You cannot reply to topics in this forum
    You cannot edit your posts in this forum
    You cannot delete your posts in this forum
    You cannot vote in polls in this forum
    You cannot attach files in this forum
    You cannot download files in this forum