Register  ·  Log in
Forgot password?

  • Тупой и еще тупее 2 / Dumb and Dumber To (Питер Фаррелли / Peter Farrelly, Бобби Фаррелли / Bobby Farrelly) [2014, США, комедия, BDRip] MVO (iTunes)

    Reply to topic
    Author Message


    Post 15-Aug-2016 13:05



    Тупой и еще тупее 2 / Dumb and Dumber To
    Страна: США
    Жанр: комедия
    Год выпуска: 2014
    Продолжительность: 01:49:30
    Перевод: Профессиональный (многоголосый закадровый) iTunes
    Cубтитры: нет
    Режиссер: Питер Фаррелли / Peter Farrelly, Бобби Фаррелли / Bobby Farrelly
    В ролях: Джим Керри (Lloyd Christmas), Джефф Дэниелс (Harry Dunne), Роб Риггл (Travis / Captain Lippincott), Лори Холден (Adele), Рэйчел Мелвин (Penny), Кэтлин Тёрнер (Fraida Felcher), Стив Том (Dr. Pinchelow), Дон Лейк (Dr. Meldmann), Патриция Френч (Ms. Sourpuss), Билл Мюррей (Ice Pick), Темби Лок (Dr. Walcott), Пол Блекторн (Dr. Meldman)
    Описание: Гарри Данн и Ллойд Кристмас отправляются в путешествие, чтобы разыскать ребенка Гарри, о существовании которого он не подозревал.
    Качество видео: BDRip | исх. Dumb.And.Dumber.To.2014.1080p.BluRay.AVC.DTS-HD.MA.5.1 |
    Формат видео: AVI
    Видео: 704x384 (1.83:1), 23.976 fps, XviD build 73 ~1508 kbps avg, 0.23 bit/pixel
    Аудио: 48 kHz, AC3 Dolby Digital, 3/2 (L,C,R,l,r) + LFE ch, ~384 kbps


    Complete name : E:\Zona Downloads\Tupoj.i.eshhe.tupee.2_2014.D.BDRip_.avi
    Format : AVI
    Format/Info : Audio Video Interleave
    File size : 1.45 GiB
    Duration : 1h 49mn
    Overall bit rate : 1 901 Kbps
    Movie name : Tupoj.i.esche.tupee.2_2014.D.BDRip_MegaPeer_by_Twi7ter
    Director : Twi7ter
    Genre : Comedy
    Writing application : VirtualDubMod (build 2550/release)
    Original source form/Name : Movie
    ID : 0
    Format : MPEG-4 Visual
    Format profile : Advanced Simple@L5
    Format settings, BVOP : 2
    Format settings, QPel : No
    Format settings, GMC : No warppoints
    Format settings, Matrix : Custom
    Codec ID : XVID
    Codec ID/Hint : XviD
    Duration : 1h 49mn
    Bit rate : 1 507 Kbps
    Width : 704 pixels
    Height : 384 pixels
    Display aspect ratio : 1.85:1
    Frame rate : 23.976 fps
    Color space : YUV
    Chroma subsampling : 4:2:0
    Bit depth : 8 bits
    Scan type : Progressive
    Compression mode : Lossy
    Bits/(Pixel*Frame) : 0.233
    Stream size : 1.15 GiB (79%)
    Writing library : XviD 73
    ID : 1
    Format : AC-3
    Format/Info : Audio Coding 3
    Mode extension : CM (complete main)
    Format settings, Endianness : Big
    Codec ID : 2000
    Duration : 1h 49mn
    Bit rate mode : Constant
    Bit rate : 384 Kbps
    Channel(s) : 6 channels
    Channel positions : Front: L C R, Side: L R, LFE
    Sampling rate : 48.0 KHz
    Bit depth : 16 bits
    Compression mode : Lossy
    Delay relative to video : 31ms
    Stream size : 300 MiB (20%)
    Alignment : Split accross interleaves
    Interleave, duration : 42 ms (1.00 video frame)
    Interleave, preload duration : 500 ms

    Скриншот c названием фильма


    Download .torrent

    Download free and at maximum speed!

    How to Download? · What is a torrent? · Ratings and Limitations

    The site does not extend and does not store electronic(digital) versions of products, and only gives access to a reference catalogue created by users on torrent-files which contain only lists of the hash-sums, the earnest entreaty, with complaints(abuse) to access directly to the user. Files for an exchange on tracker are given by users of a site, and the administration does not bear the responsibility for their maintenance. The request to not fill in the files protected by copyrights, and also files of the illegal maintenance!

    [Profile] [PM]
    Display posts from previous:    
    Reply to topic

    The time now is: Today 06:24

    All times are GMT + 3 Hours

    You cannot post new topics in this forum
    You cannot reply to topics in this forum
    You cannot edit your posts in this forum
    You cannot delete your posts in this forum
    You cannot vote in polls in this forum
    You cannot attach files in this forum
    You cannot download files in this forum