BitTorrentTracker PerecTracker.org
BitTorrentTracker PerecTracker.org
    
Регистрация  ·  Вход
 
 · 
Забыли пароль?

  • Тупой и еще тупее 2 / Dumb and Dumber To (Питер Фаррелли / Peter Farrelly, Бобби Фаррелли / Bobby Farrelly) [2014, США, комедия, BDRip] MVO (iTunes)

    Ответить на тему
     
    Автор Сообщение

    Light

    Создавать темы 15-Авг-2016 12:05

           

    [Цитировать]

    Тупой и еще тупее 2 / Dumb and Dumber To
    Страна: США
    Жанр: комедия
    Год выпуска: 2014
    Продолжительность: 01:49:30
    Перевод: Профессиональный (многоголосый закадровый) iTunes
    Cубтитры: нет
    Режиссер: Питер Фаррелли / Peter Farrelly, Бобби Фаррелли / Bobby Farrelly
    В ролях: Джим Керри (Lloyd Christmas), Джефф Дэниелс (Harry Dunne), Роб Риггл (Travis / Captain Lippincott), Лори Холден (Adele), Рэйчел Мелвин (Penny), Кэтлин Тёрнер (Fraida Felcher), Стив Том (Dr. Pinchelow), Дон Лейк (Dr. Meldmann), Патриция Френч (Ms. Sourpuss), Билл Мюррей (Ice Pick), Темби Лок (Dr. Walcott), Пол Блекторн (Dr. Meldman)
    Описание: Гарри Данн и Ллойд Кристмас отправляются в путешествие, чтобы разыскать ребенка Гарри, о существовании которого он не подозревал.
    Сэмпл: http://multi-up.com/1113871
    Качество видео: BDRip | исх. Dumb.And.Dumber.To.2014.1080p.BluRay.AVC.DTS-HD.MA.5.1 |
    Формат видео: AVI
    Видео: 704x384 (1.83:1), 23.976 fps, XviD build 73 ~1508 kbps avg, 0.23 bit/pixel
    Аудио: 48 kHz, AC3 Dolby Digital, 3/2 (L,C,R,l,r) + LFE ch, ~384 kbps

    MediaInfo

    General
    Complete name : E:\Zona Downloads\Tupoj.i.eshhe.tupee.2_2014.D.BDRip_.avi
    Format : AVI
    Format/Info : Audio Video Interleave
    File size : 1.45 GiB
    Duration : 1h 49mn
    Overall bit rate : 1 901 Kbps
    Movie name : Tupoj.i.esche.tupee.2_2014.D.BDRip_MegaPeer_by_Twi7ter
    Director : Twi7ter
    Genre : Comedy
    Writing application : VirtualDubMod 1.5.10.3 (build 2550/release)
    Original source form/Name : Movie
    Video
    ID : 0
    Format : MPEG-4 Visual
    Format profile : Advanced Simple@L5
    Format settings, BVOP : 2
    Format settings, QPel : No
    Format settings, GMC : No warppoints
    Format settings, Matrix : Custom
    Codec ID : XVID
    Codec ID/Hint : XviD
    Duration : 1h 49mn
    Bit rate : 1 507 Kbps
    Width : 704 pixels
    Height : 384 pixels
    Display aspect ratio : 1.85:1
    Frame rate : 23.976 fps
    Color space : YUV
    Chroma subsampling : 4:2:0
    Bit depth : 8 bits
    Scan type : Progressive
    Compression mode : Lossy
    Bits/(Pixel*Frame) : 0.233
    Stream size : 1.15 GiB (79%)
    Writing library : XviD 73
    Audio
    ID : 1
    Format : AC-3
    Format/Info : Audio Coding 3
    Mode extension : CM (complete main)
    Format settings, Endianness : Big
    Codec ID : 2000
    Duration : 1h 49mn
    Bit rate mode : Constant
    Bit rate : 384 Kbps
    Channel(s) : 6 channels
    Channel positions : Front: L C R, Side: L R, LFE
    Sampling rate : 48.0 KHz
    Bit depth : 16 bits
    Compression mode : Lossy
    Delay relative to video : 31ms
    Stream size : 300 MiB (20%)
    Alignment : Split accross interleaves
    Interleave, duration : 42 ms (1.00 video frame)
    Interleave, preload duration : 500 ms

    Скриншот c названием фильма

    Скриншоты

    Скачать .torrent

    Скачать торрент-файл бесплатно и на максимальной скорости!

    Как скачивать? · Что такое торрент? · Рейтинг и ограничения

    !ВНИМАНИЕ!
    Сайт не распространяет и не хранит электронные версии произведений, а занимается лишь лишь предоставлением доступа к создаваемому пользователями каталогу ссылок на торрент-файлы, которые содержат только списки хеш-сумм, убедительная просьба с жалобами обращаться напрямую к пользователю. Файлы для обмена на трекере предоставлены пользователями сайта, и администрация не несёт ответственности за их содержание. Просьба не заливать файлы, защищенные авторскими правами, а также файлы нелегального содержания!


    _________________
    [Профиль] [ЛС]
    Показать сообщения:    
    Ответить на тему

    Текущее время: Сегодня, в 20:19

    Часовой пояс: GMT + 2



    Вы не можете начинать темы
    Вы не можете отвечать на сообщения
    Вы не можете редактировать свои сообщения
    Вы не можете удалять свои сообщения
    Вы не можете голосовать в опросах
    Вы не можете прикреплять файлы к сообщениям
    Вы не можете скачивать файлы